  0
SECTION
  2
HEADER
  9
$ACADVER
  1
AC1014
  9
$ACADMAINTVER
 70
     0
  9
$DWGCODEPAGE
  3
ANSI_932
  9
$INSBASE
 10
0.0
 20
0.0
 30
0.0
  9
$EXTMIN
 10
-91.206667
 20
25.831452
 30
0.0
  9
$EXTMAX
 10
414.610466
 20
362.156343
 30
0.0
  9
$LIMMIN
 10
0.0
 20
0.0
  9
$LIMMAX
 10
400.0
 20
280.0
  9
$ORTHOMODE
 70
     1
  9
$REGENMODE
 70
     1
  9
$FILLMODE
 70
     0
  9
$QTEXTMODE
 70
     0
  9
$MIRRTEXT
 70
     1
  9
$DRAGMODE
 70
     2
  9
$LTSCALE
 40
1.0
  9
$OSMODE
 70
    32
  9
$ATTMODE
 70
     1
  9
$TEXTSIZE
 40
5.0
  9
$TRACEWID
 40
0.05
  9
$TEXTSTYLE
  7
BIGFONT
  9
$CLAYER
  8
3
  9
$CELTYPE
  6
BYLAYER
  9
$CECOLOR
 62
   256
  9
$CELTSCALE
 40
1.0
  9
$DELOBJ
 70
     1
  9
$DISPSILH
 70
     0
  9
$DIMSCALE
 40
0.0
  9
$DIMASZ
 40
2.5
  9
$DIMEXO
 40
1.0
  9
$DIMDLI
 40
0.38
  9
$DIMRND
 40
0.0
  9
$DIMDLE
 40
0.0
  9
$DIMEXE
 40
1.0
  9
$DIMTP
 40
0.0
  9
$DIMTM
 40
0.0
  9
$DIMTXT
 40
5.0
  9
$DIMCEN
 40
0.09
  9
$DIMTSZ
 40
0.0
  9
$DIMTOL
 70
     0
  9
$DIMLIM
 70
     0
  9
$DIMTIH
 70
     0
  9
$DIMTOH
 70
     1
  9
$DIMSE1
 70
     0
  9
$DIMSE2
 70
     0
  9
$DIMTAD
 70
     0
  9
$DIMZIN
 70
     8
  9
$DIMBLK
  1

  9
$DIMASO
 70
     1
  9
$DIMSHO
 70
     1
  9
$DIMPOST
  1

  9
$DIMAPOST
  1

  9
$DIMALT
 70
     0
  9
$DIMALTD
 70
     2
  9
$DIMALTF
 40
25.4
  9
$DIMLFAC
 40
1.0
  9
$DIMTOFL
 70
     0
  9
$DIMTVP
 40
0.0
  9
$DIMTIX
 70
     0
  9
$DIMSOXD
 70
     0
  9
$DIMSAH
 70
     0
  9
$DIMBLK1
  1

  9
$DIMBLK2
  1

  9
$DIMSTYLE
  2
STANDARD
  9
$DIMCLRD
 70
     0
  9
$DIMCLRE
 70
     0
  9
$DIMCLRT
 70
     0
  9
$DIMTFAC
 40
1.0
  9
$DIMGAP
 40
0.09
  9
$DIMJUST
 70
     0
  9
$DIMSD1
 70
     0
  9
$DIMSD2
 70
     0
  9
$DIMTOLJ
 70
     1
  9
$DIMTZIN
 70
     8
  9
$DIMALTZ
 70
     0
  9
$DIMALTTZ
 70
     0
  9
$DIMFIT
 70
     3
  9
$DIMUPT
 70
     1
  9
$DIMUNIT
 70
     2
  9
$DIMDEC
 70
     1
  9
$DIMTDEC
 70
     1
  9
$DIMALTU
 70
     2
  9
$DIMALTTD
 70
     2
  9
$DIMTXSTY
  7
STANDARD
  9
$DIMAUNIT
 70
     0
  9
$LUNITS
 70
     2
  9
$LUPREC
 70
     2
  9
$SKETCHINC
 40
0.1
  9
$FILLETRAD
 40
1.5
  9
$AUNITS
 70
     0
  9
$AUPREC
 70
     0
  9
$MENU
  1
acad
  9
$ELEVATION
 40
0.0
  9
$PELEVATION
 40
0.0
  9
$THICKNESS
 40
0.0
  9
$LIMCHECK
 70
     0
  9
$BLIPMODE
 70
     1
  9
$CHAMFERA
 40
0.0
  9
$CHAMFERB
 40
0.0
  9
$CHAMFERC
 40
0.0
  9
$CHAMFERD
 40
0.0
  9
$SKPOLY
 70
     0
  9
$TDCREATE
 40
2449283.567812500
  9
$TDUPDATE
 40
2453089.733527199
  9
$TDINDWG
 40
1.0148997917
  9
$TDUSRTIMER
 40
1.0148997917
  9
$USRTIMER
 70
     1
  9
$ANGBASE
 50
0.0
  9
$ANGDIR
 70
     0
  9
$PDMODE
 70
     0
  9
$PDSIZE
 40
0.0
  9
$PLINEWID
 40
0.0
  9
$COORDS
 70
     2
  9
$SPLFRAME
 70
     0
  9
$SPLINETYPE
 70
     6
  9
$SPLINESEGS
 70
     8
  9
$ATTDIA
 70
     0
  9
$ATTREQ
 70
     1
  9
$HANDLING
 70
     1
  9
$HANDSEED
  5
1E18
  9
$SURFTAB1
 70
     6
  9
$SURFTAB2
 70
     6
  9
$SURFTYPE
 70
     6
  9
$SURFU
 70
     6
  9
$SURFV
 70
     6
  9
$UCSNAME
  2

  9
$UCSORG
 10
0.0
 20
0.0
 30
0.0
  9
$UCSXDIR
 10
1.0
 20
0.0
 30
0.0
  9
$UCSYDIR
 10
0.0
 20
1.0
 30
0.0
  9
$PUCSNAME
  2

  9
$PUCSORG
 10
0.0
 20
0.0
 30
0.0
  9
$PUCSXDIR
 10
1.0
 20
0.0
 30
0.0
  9
$PUCSYDIR
 10
0.0
 20
1.0
 30
0.0
  9
$USERI1
 70
     0
  9
$USERI2
 70
     0
  9
$USERI3
 70
     0
  9
$USERI4
 70
     0
  9
$USERI5
 70
     0
  9
$USERR1
 40
0.0
  9
$USERR2
 40
0.0
  9
$USERR3
 40
0.0
  9
$USERR4
 40
0.0
  9
$USERR5
 40
0.0
  9
$WORLDVIEW
 70
     1
  9
$SHADEDGE
 70
     3
  9
$SHADEDIF
 70
    70
  9
$TILEMODE
 70
     1
  9
$MAXACTVP
 70
    16
  9
$PINSBASE
 10
0.0
 20
0.0
 30
0.0
  9
$PLIMCHECK
 70
     0
  9
$PEXTMIN
 10
1.000000E+20
 20
1.000000E+20
 30
1.000000E+20
  9
$PEXTMAX
 10
-1.000000E+20
 20
-1.000000E+20
 30
-1.000000E+20
  9
$PLIMMIN
 10
0.0
 20
0.0
  9
$PLIMMAX
 10
12.0
 20
9.0
  9
$UNITMODE
 70
     0
  9
$VISRETAIN
 70
     0
  9
$PLINEGEN
 70
     0
  9
$PSLTSCALE
 70
     1
  9
$TREEDEPTH
 70
  3020
  9
$PICKSTYLE
 70
     1
  9
$CMLSTYLE
  2
STANDARD
  9
$CMLJUST
 70
     0
  9
$CMLSCALE
 40
1.0
  9
$PROXYGRAPHICS
 70
     1
  9
$MEASUREMENT
 70
     0
  0
ENDSEC
  0
SECTION
  2
CLASSES
  0
CLASS
  1
LWPOLYLINE
  2
AcDbPolyline
  3
"AutoCAD"
 90
        0
280
     0
281
     1
  0
CLASS
  1
DICTIONARYVAR
  2
AcDbDictionaryVar
  3
"AutoCAD"
 90
        0
280
     0
281
     0
  0
CLASS
  1
HATCH
  2
AcDbHatch
  3
"ACAD_SEDONA"
 90
        0
280
     0
281
     1
  0
ENDSEC
  0
SECTION
  2
TABLES
  0
TABLE
  2
VPORT
  5
3CD
100
AcDbSymbolTable
 70
     1
  0
VPORT
  5
1E05
100
AcDbSymbolTableRecord
100
AcDbViewportTableRecord
  2
*ACTIVE
 70
     0
 10
0.0
 20
0.0
 11
1.0
 21
1.0
 12
248.004956
 22
195.31987
 13
0.0
 23
0.0
 14
1.0
 24
1.0
 15
5.0
 25
5.0
 16
0.0
 26
0.0
 36
1.0
 17
0.0
 27
0.0
 37
0.0
 40
460.646319
 41
1.591963
 42
50.0
 43
0.0
 44
0.0
 50
0.0
 51
0.0
 71
     0
 72
 20000
 73
     1
 74
     1
 75
     0
 76
     0
 77
     0
 78
     0
  0
ENDTAB
  0
TABLE
  2
LTYPE
  5
3CA
100
AcDbSymbolTable
 70
    29
  0
LTYPE
  5
3D7
100
AcDbSymbolTableRecord
100
AcDbLinetypeTableRecord
  2
BYBLOCK
 70
     0
  3

 72
    65
 73
     0
 40
0.0
  0
LTYPE
  5
3D8
100
AcDbSymbolTableRecord
100
AcDbLinetypeTableRecord
  2
BYLAYER
 70
     0
  3

 72
    65
 73
     0
 40
0.0
  0
LTYPE
  5
3D9
100
AcDbSymbolTableRecord
100
AcDbLinetypeTableRecord
  2
CONTINUOUS
 70
     0
  3
Solid line
 72
    65
 73
     0
 40
0.0
  0
LTYPE
  5
3F5
100
AcDbSymbolTableRecord
100
AcDbLinetypeTableRecord
  2
BORDER
 70
     0
  3
__ __ . __ __ . __ __ . __ __ . __ __ . __ __ .
 72
    65
 73
     6
 40
1.75
 49
0.5
 74
     0
 49
-0.25
 74
     0
 49
0.5
 74
     0
 49
-0.25
 74
     0
 49
0.0
 74
     0
 49
-0.25
 74
     0
  0
LTYPE
  5
3F6
100
AcDbSymbolTableRecord
100
AcDbLinetypeTableRecord
  2
BORDER2
 70
     0
  3
__.__.__.__.__.__.__.__.__.__.__.__.__.__.__.__
 72
    65
 73
     6
 40
0.875
 49
0.25
 74
     0
 49
-0.125
 74
     0
 49
0.25
 74
     0
 49
-0.125
 74
     0
 49
0.0
 74
     0
 49
-0.125
 74
     0
  0
LTYPE
  5
3F7
100
AcDbSymbolTableRecord
100
AcDbLinetypeTableRecord
  2
BORDERX2
 70
     0
  3
____  ____  .  ____  ____  .  ____  ____  .  __
 72
    65
 73
     6
 40
3.5
 49
1.0
 74
     0
 49
-0.5
 74
     0
 49
1.0
 74
     0
 49
-0.5
 74
     0
 49
0.0
 74
     0
 49
-0.5
 74
     0
  0
LTYPE
  5
3F8
100
AcDbSymbolTableRecord
100
AcDbLinetypeTableRecord
  2
CENTER
 70
     0
  3
____ _ ____ _ ____ _ ____ _ ____ _ ____ _ ____ 
 72
    65
 73
     4
 40
2.0
 49
1.25
 74
     0
 49
-0.25
 74
     0
 49
0.25
 74
     0
 49
-0.25
 74
     0
  0
LTYPE
  5
3F9
100
AcDbSymbolTableRecord
100
AcDbLinetypeTableRecord
  2
CENTER2
 70
     0
  3
___ _ ___ _ ___ _ ___ _ ___ _ ___ _ ___ _ ___ _
 72
    65
 73
     4
 40
1.125
 49
0.75
 74
     0
 49
-0.125
 74
     0
 49
0.125
 74
     0
 49
-0.125
 74
     0
  0
LTYPE
  5
3FA
100
AcDbSymbolTableRecord
100
AcDbLinetypeTableRecord
  2
CENTERX2
 70
     0
  3
________  __  ________  __  ________  __  _____
 72
    65
 73
     4
 40
4.0
 49
2.5
 74
     0
 49
-0.5
 74
     0
 49
0.5
 74
     0
 49
-0.5
 74
     0
  0
LTYPE
  5
3FB
100
AcDbSymbolTableRecord
100
AcDbLinetypeTableRecord
  2
DASHDOT
 70
     0
  3
__ . __ . __ . __ . __ . __ . __ . __ . __ . __
 72
    65
 73
     4
 40
1.0
 49
0.5
 74
     0
 49
-0.25
 74
     0
 49
0.0
 74
     0
 49
-0.25
 74
     0
  0
LTYPE
  5
3FC
100
AcDbSymbolTableRecord
100
AcDbLinetypeTableRecord
  2
DASHDOT2
 70
     0
  3
_._._._._._._._._._._._._._._._._._._._._._._._
 72
    65
 73
     4
 40
0.5
 49
0.25
 74
     0
 49
-0.125
 74
     0
 49
0.0
 74
     0
 49
-0.125
 74
     0
  0
LTYPE
  5
3FD
100
AcDbSymbolTableRecord
100
AcDbLinetypeTableRecord
  2
DASHDOTX2
 70
     0
  3
____  .  ____  .  ____  .  ____  .  ____  .  __
 72
    65
 73
     4
 40
2.0
 49
1.0
 74
     0
 49
-0.5
 74
     0
 49
0.0
 74
     0
 49
-0.5
 74
     0
  0
LTYPE
  5
3FE
100
AcDbSymbolTableRecord
100
AcDbLinetypeTableRecord
  2
DASHED
 70
     0
  3
__ __ __ __ __ __ __ __ __ __ __ __ __ __ __ __
 72
    65
 73
     2
 40
0.75
 49
0.5
 74
     0
 49
-0.25
 74
     0
  0
LTYPE
  5
3FF
100
AcDbSymbolTableRecord
100
AcDbLinetypeTableRecord
  2
DASHED2
 70
     0
  3
_ _ _ _ _ _ _ _ _ _ _ _ _ _ _ _ _ _ _ _ _ _ _ _
 72
    65
 73
     2
 40
0.375
 49
0.25
 74
     0
 49
-0.125
 74
     0
  0
LTYPE
  5
400
100
AcDbSymbolTableRecord
100
AcDbLinetypeTableRecord
  2
DASHEDX2
 70
     0
  3
____  ____  ____  ____  ____  ____  ____  ____ 
 72
    65
 73
     2
 40
1.5
 49
1.0
 74
     0
 49
-0.5
 74
     0
  0
LTYPE
  5
401
100
AcDbSymbolTableRecord
100
AcDbLinetypeTableRecord
  2
DIVIDE
 70
     0
  3
____ . . ____ . . ____ . . ____ . . ____ . . __
 72
    65
 73
     6
 40
1.25
 49
0.5
 74
     0
 49
-0.25
 74
     0
 49
0.0
 74
     0
 49
-0.25
 74
     0
 49
0.0
 74
     0
 49
-0.25
 74
     0
  0
LTYPE
  5
402
100
AcDbSymbolTableRecord
100
AcDbLinetypeTableRecord
  2
DIVIDE2
 70
     0
  3
__..__..__..__..__..__..__..__..__..__..__..__.
 72
    65
 73
     6
 40
0.625
 49
0.25
 74
     0
 49
-0.125
 74
     0
 49
0.0
 74
     0
 49
-0.125
 74
     0
 49
0.0
 74
     0
 49
-0.125
 74
     0
  0
LTYPE
  5
403
100
AcDbSymbolTableRecord
100
AcDbLinetypeTableRecord
  2
DIVIDEX2
 70
     0
  3
________  .  .  ________  .  .  ________  .  . 
 72
    65
 73
     6
 40
2.5
 49
1.0
 74
     0
 49
-0.5
 74
     0
 49
0.0
 74
     0
 49
-0.5
 74
     0
 49
0.0
 74
     0
 49
-0.5
 74
     0
  0
LTYPE
  5
404
100
AcDbSymbolTableRecord
100
AcDbLinetypeTableRecord
  2
DOT
 70
     0
  3
. . . . . . . . . . . . . . . . . . . . . . . .
 72
    65
 73
     2
 40
0.25
 49
0.0
 74
     0
 49
-0.25
 74
     0
  0
LTYPE
  5
405
100
AcDbSymbolTableRecord
100
AcDbLinetypeTableRecord
  2
DOT2
 70
     0
  3
...............................................
 72
    65
 73
     2
 40
0.125
 49
0.0
 74
     0
 49
-0.125
 74
     0
  0
LTYPE
  5
406
100
AcDbSymbolTableRecord
100
AcDbLinetypeTableRecord
  2
DOTX2
 70
     0
  3
.  .  .  .  .  .  .  .  .  .  .  .  .  .  .  . 
 72
    65
 73
     2
 40
0.5
 49
0.0
 74
     0
 49
-0.5
 74
     0
  0
LTYPE
  5
407
100
AcDbSymbolTableRecord
100
AcDbLinetypeTableRecord
  2
HIDDEN
 70
     0
  3
__ __ __ __ __ __ __ __ __ __ __ __ __ __ __ __
 72
    65
 73
     2
 40
0.375
 49
0.25
 74
     0
 49
-0.125
 74
     0
  0
LTYPE
  5
408
100
AcDbSymbolTableRecord
100
AcDbLinetypeTableRecord
  2
HIDDEN2
 70
     0
  3
_ _ _ _ _ _ _ _ _ _ _ _ _ _ _ _ _ _ _ _ _ _ _ _
 72
    65
 73
     2
 40
0.1875
 49
0.125
 74
     0
 49
-0.0625
 74
     0
  0
LTYPE
  5
409
100
AcDbSymbolTableRecord
100
AcDbLinetypeTableRecord
  2
HIDDENX2
 70
     0
  3
____ ____ ____ ____ ____ ____ ____ ____ ____ __
 72
    65
 73
     2
 40
0.75
 49
0.5
 74
     0
 49
-0.25
 74
     0
  0
LTYPE
  5
40A
100
AcDbSymbolTableRecord
100
AcDbLinetypeTableRecord
  2
PHANTOM
 70
     0
  3
______  __  __  ______  __  __  ______  __  __ 
 72
    65
 73
     6
 40
2.5
 49
1.25
 74
     0
 49
-0.25
 74
     0
 49
0.25
 74
     0
 49
-0.25
 74
     0
 49
0.25
 74
     0
 49
-0.25
 74
     0
  0
LTYPE
  5
40B
100
AcDbSymbolTableRecord
100
AcDbLinetypeTableRecord
  2
PHANTOM2
 70
     0
  3
___ _ _ ___ _ _ ___ _ _ ___ _ _ ___ _ _ ___ _ _
 72
    65
 73
     6
 40
1.25
 49
0.625
 74
     0
 49
-0.125
 74
     0
 49
0.125
 74
     0
 49
-0.125
 74
     0
 49
0.125
 74
     0
 49
-0.125
 74
     0
  0
LTYPE
  5
40C
100
AcDbSymbolTableRecord
100
AcDbLinetypeTableRecord
  2
PHANTOMX2
 70
     0
  3
____________    ____    ____    ____________   
 72
    65
 73
     6
 40
5.0
 49
2.5
 74
     0
 49
-0.5
 74
     0
 49
0.5
 74
     0
 49
-0.5
 74
     0
 49
0.5
 74
     0
 49
-0.5
 74
     0
  0
LTYPE
  5
40D
100
AcDbSymbolTableRecord
100
AcDbLinetypeTableRecord
  2
TENSEN
 70
     0
  3

 72
    65
 73
     2
 40
4.0
 49
3.0
 74
     0
 49
-1.0
 74
     0
  0
LTYPE
  5
40E
100
AcDbSymbolTableRecord
100
AcDbLinetypeTableRecord
  2
ITTEN
 70
     0
  3

 72
    65
 73
     4
 40
8.0
 49
5.0
 74
     0
 49
-1.0
 74
     0
 49
1.0
 74
     0
 49
-1.0
 74
     0
  0
LTYPE
  5
40F
100
AcDbSymbolTableRecord
100
AcDbLinetypeTableRecord
  2
TENSEN3
 70
     0
  3

 72
    65
 73
     2
 40
4.0
 49
3.0
 74
     0
 49
-1.0
 74
     0
  0
LTYPE
  5
410
100
AcDbSymbolTableRecord
100
AcDbLinetypeTableRecord
  2
ITTEN1
 70
     0
  3

 72
    65
 73
     4
 40
8.2
 49
5.0
 74
     0
 49
-1.0
 74
     0
 49
1.2
 74
     0
 49
-1.0
 74
     0
  0
ENDTAB
  0
TABLE
  2
LAYER
  5
3C7
100
AcDbSymbolTable
 70
    12
  0
LAYER
  5
3D4
100
AcDbSymbolTableRecord
100
AcDbLayerTableRecord
  2
0
 70
     0
 62
     7
  6
CONTINUOUS
  0
LAYER
  5
416
100
AcDbSymbolTableRecord
100
AcDbLayerTableRecord
  2
DAI
 70
     0
 62
     8
  6
CONTINUOUS
  0
LAYER
  5
417
100
AcDbSymbolTableRecord
100
AcDbLayerTableRecord
  2
1
 70
     0
 62
     1
  6
ITTEN1
  0
LAYER
  5
418
100
AcDbSymbolTableRecord
100
AcDbLayerTableRecord
  2
2
 70
     0
 62
     2
  6
TENSEN
  0
LAYER
  5
419
100
AcDbSymbolTableRecord
100
AcDbLayerTableRecord
  2
3
 70
     0
 62
     3
  6
CONTINUOUS
  0
LAYER
  5
41A
100
AcDbSymbolTableRecord
100
AcDbLayerTableRecord
  2
4
 70
     0
 62
     6
  6
CONTINUOUS
  0
LAYER
  5
41B
100
AcDbSymbolTableRecord
100
AcDbLayerTableRecord
  2
5
 70
     0
 62
     6
  6
TENSEN3
  0
LAYER
  5
41C
100
AcDbSymbolTableRecord
100
AcDbLayerTableRecord
  2
6
 70
     0
 62
     6
  6
ITTEN
  0
LAYER
  5
41D
100
AcDbSymbolTableRecord
100
AcDbLayerTableRecord
  2
7
 70
     0
 62
     3
  6
TENSEN
  0
LAYER
  5
41E
100
AcDbSymbolTableRecord
100
AcDbLayerTableRecord
  2
8
 70
     0
 62
     3
  6
ITTEN1
  0
LAYER
  5
41F
100
AcDbSymbolTableRecord
100
AcDbLayerTableRecord
  2
DEFPOINTS
 70
     0
 62
     7
  6
CONTINUOUS
  0
LAYER
  5
420
100
AcDbSymbolTableRecord
100
AcDbLayerTableRecord
  2
ASHADE
 70
     0
 62
     7
  6
CONTINUOUS
  0
ENDTAB
  0
TABLE
  2
STYLE
  5
3C8
100
AcDbSymbolTable
 70
    20
  0
STYLE
  5
3D5
100
AcDbSymbolTableRecord
100
AcDbTextStyleTableRecord
  2
STANDARD
 70
     0
 40
0.0
 41
1.0
 50
0.0
 71
     0
 42
0.2
  3
txt
  4

  0
STYLE
  5
3E2
100
AcDbSymbolTableRecord
100
AcDbTextStyleTableRecord
  2
TEXT-1
 70
     0
 40
0.0
 41
1.0
 50
0.0
 71
     0
 42
0.2
  3
italicc.shx
  4

  0
STYLE
  5
3E3
100
AcDbSymbolTableRecord
100
AcDbTextStyleTableRecord
  2
TEST1
 70
     0
 40
0.0
 41
1.0
 50
0.0
 71
     0
 42
0.2
  3
italicc.shx
  4

  0
STYLE
  5
3E4
100
AcDbSymbolTableRecord
100
AcDbTextStyleTableRecord
  2
TEST2
 70
     0
 40
10.0
 41
1.0
 50
0.0
 71
     0
 42
10.0
  3
txt
  4
extfont
  0
STYLE
  5
3E5
100
AcDbSymbolTableRecord
100
AcDbTextStyleTableRecord
  2
BIGFONT
 70
     0
 40
5.0
 41
0.7
 50
0.0
 71
     0
 42
5.0
  3
txt.shx
  4
extfont.shx
  0
STYLE
  5
3E6
100
AcDbSymbolTableRecord
100
AcDbTextStyleTableRecord
  2
ROMAND
 70
     0
 40
4.0
 41
0.6
 50
0.0
 71
     0
 42
4.0
  3
romand
  4

  0
STYLE
  5
3E7
100
AcDbSymbolTableRecord
100
AcDbTextStyleTableRecord
  2
EXTFONT
 70
     0
 40
3.5
 41
0.5
 50
0.0
 71
     0
 42
3.5
  3
txt.shx
  4
extfont
  0
STYLE
  5
3E8
100
AcDbSymbolTableRecord
100
AcDbTextStyleTableRecord
  2
ROMANS
 70
     0
 40
2.5
 41
0.6
 50
0.0
 71
     0
 42
2.5
  3
romans
  4

  0
STYLE
  5
3E9
100
AcDbSymbolTableRecord
100
AcDbTextStyleTableRecord
  2
SCRIPTC
 70
     0
 40
20.0
 41
1.0
 50
0.0
 71
     0
 42
20.0
  3
complex.shx
  4

  0
STYLE
  5
3EA
100
AcDbSymbolTableRecord
100
AcDbTextStyleTableRecord
  2
SCRIPTS
 70
     0
 40
20.0
 41
1.0
 50
0.0
 71
     0
 42
20.0
  3
scripts
  4

  0
STYLE
  5
3EB
100
AcDbSymbolTableRecord
100
AcDbTextStyleTableRecord
  2
ROMANT
 70
     0
 40
20.0
 41
1.0
 50
0.0
 71
     0
 42
20.0
  3
romant
  4

  0
STYLE
  5
3EC
100
AcDbSymbolTableRecord
100
AcDbTextStyleTableRecord
  2
GOTHICE
 70
     0
 40
20.0
 41
1.0
 50
0.0
 71
     0
 42
20.0
  3
gothice
  4

  0
STYLE
  5
3ED
100
AcDbSymbolTableRecord
100
AcDbTextStyleTableRecord
  2
GOTHICG
 70
     0
 40
20.0
 41
1.0
 50
0.0
 71
     0
 42
20.0
  3
gothicg
  4

  0
STYLE
  5
3EE
100
AcDbSymbolTableRecord
100
AcDbTextStyleTableRecord
  2
SANSSERIF
 70
     0
 40
20.0
 41
1.0
 50
0.0
 71
     0
 42
20.0
  3
sas_____.pfb
  4

  0
STYLE
  5
3EF
100
AcDbSymbolTableRecord
100
AcDbTextStyleTableRecord
  2
TECHNICBOLD
 70
     0
 40
20.0
 41
1.0
 50
0.0
 71
     0
 42
20.0
  3
teb_____.pfb
  4

  0
STYLE
  5
3F0
100
AcDbSymbolTableRecord
100
AcDbTextStyleTableRecord
  2
TXT
 70
     0
 40
20.0
 41
1.0
 50
0.0
 71
     0
 42
20.0
  3
txt
  4

  0
STYLE
  5
3F1
100
AcDbSymbolTableRecord
100
AcDbTextStyleTableRecord
  2
MONOTXT
 70
     0
 40
20.0
 41
1.0
 50
0.0
 71
     0
 42
20.0
  3
monotxt
  4

  0
STYLE
  5
3F2
100
AcDbSymbolTableRecord
100
AcDbTextStyleTableRecord
  2
TECHNICLIGHT
 70
     0
 40
3.6
 41
0.8
 50
0.0
 71
     0
 42
3.6
  3
tel_____.pfb
  4

  0
STYLE
  5
3F3
100
AcDbSymbolTableRecord
100
AcDbTextStyleTableRecord
  2
GREEKS
 70
     0
 40
20.0
 41
1.0
 50
0.0
 71
     0
 42
20.0
  3
greeks
  4

  0
STYLE
  5
3F4
100
AcDbSymbolTableRecord
100
AcDbTextStyleTableRecord
  2
ASHADE
 70
     0
 40
0.2
 41
1.0
 50
0.0
 71
     0
 42
5.0
  3
simplex
  4

  0
ENDTAB
  0
TABLE
  2
VIEW
  5
3CB
100
AcDbSymbolTable
 70
     1
  0
VIEW
  5
411
100
AcDbSymbolTableRecord
100
AcDbViewTableRecord
  2
OLE1
 70
     0
 40
108.5
 10
105.318611
 20
217.75
 41
173.637221
 11
0.0
 21
0.0
 31
1.0
 12
0.0
 22
0.0
 32
0.0
 42
50.0
 43
0.0
 44
0.0
 50
0.0
 71
     0
  0
ENDTAB
  0
TABLE
  2
UCS
  5
3CC
100
AcDbSymbolTable
 70
     0
  0
ENDTAB
  0
TABLE
  2
APPID
  5
3CE
100
AcDbSymbolTable
 70
     2
  0
APPID
  5
3D6
100
AcDbSymbolTableRecord
100
AcDbRegAppTableRecord
  2
ACAD
 70
     0
  0
APPID
  5
414
100
AcDbSymbolTableRecord
100
AcDbRegAppTableRecord
  2
AVE_RENDER
 70
     0
  0
ENDTAB
  0
TABLE
  2
DIMSTYLE
  5
3CF
100
AcDbSymbolTable
 70
     1
  0
DIMSTYLE
105
425
100
AcDbSymbolTableRecord
100
AcDbDimStyleTableRecord
  2
STANDARD
 70
     0
  3

  4

  5

  6

  7

 40
1.0
 41
0.18
 42
0.0625
 43
0.38
 44
0.18
 45
0.0
 46
0.0
 47
0.0
 48
0.0
140
0.18
141
0.09
142
0.0
143
25.4
144
1.0
145
0.0
146
1.0
147
0.09
 71
     0
 72
     0
 73
     1
 74
     1
 75
     0
 76
     0
 77
     0
 78
     0
170
     0
171
     2
172
     0
173
     0
174
     0
175
     0
176
     0
177
     0
178
     0
270
     2
271
     4
272
     4
273
     2
274
     2
340
3D5
275
     0
280
     0
281
     0
282
     0
283
     1
284
     0
285
     0
286
     0
287
     3
288
     0
  0
ENDTAB
  0
TABLE
  2
BLOCK_RECORD
  5
3C6
100
AcDbSymbolTable
 70
    32
  0
BLOCK_RECORD
  5
3DD
100
AcDbSymbolTableRecord
100
AcDbBlockTableRecord
  2
*MODEL_SPACE
  0
BLOCK_RECORD
  5
3DA
100
AcDbSymbolTableRecord
100
AcDbBlockTableRecord
  2
*PAPER_SPACE
  0
BLOCK_RECORD
  5
3E1
100
AcDbSymbolTableRecord
100
AcDbBlockTableRecord
  2
AVE_RENDER
  0
BLOCK_RECORD
  5
1182
100
AcDbSymbolTableRecord
100
AcDbBlockTableRecord
  2
A$C31B725D5
  0
BLOCK_RECORD
  5
11DB
100
AcDbSymbolTableRecord
100
AcDbBlockTableRecord
  2
A$C5CFE5BB2
  0
BLOCK_RECORD
  5
1200
100
AcDbSymbolTableRecord
100
AcDbBlockTableRecord
  2
*D3
  0
BLOCK_RECORD
  5
120D
100
AcDbSymbolTableRecord
100
AcDbBlockTableRecord
  2
A$C29A46910
  0
BLOCK_RECORD
  5
130D
100
AcDbSymbolTableRecord
100
AcDbBlockTableRecord
  2
A$C5E405B83
  0
BLOCK_RECORD
  5
1331
100
AcDbSymbolTableRecord
100
AcDbBlockTableRecord
  2
A$C28A64BA6
  0
BLOCK_RECORD
  5
1395
100
AcDbSymbolTableRecord
100
AcDbBlockTableRecord
  2
*D7
  0
BLOCK_RECORD
  5
13A2
100
AcDbSymbolTableRecord
100
AcDbBlockTableRecord
  2
*D8
  0
BLOCK_RECORD
  5
13AF
100
AcDbSymbolTableRecord
100
AcDbBlockTableRecord
  2
A$C50765934
  0
BLOCK_RECORD
  5
1468
100
AcDbSymbolTableRecord
100
AcDbBlockTableRecord
  2
A$C12236B7C
  0
BLOCK_RECORD
  5
148E
100
AcDbSymbolTableRecord
100
AcDbBlockTableRecord
  2
A$C1E8C0F59
  0
BLOCK_RECORD
  5
14F1
100
AcDbSymbolTableRecord
100
AcDbBlockTableRecord
  2
*D12
  0
BLOCK_RECORD
  5
14FE
100
AcDbSymbolTableRecord
100
AcDbBlockTableRecord
  2
A$C325F7C1E
  0
BLOCK_RECORD
  5
15A7
100
AcDbSymbolTableRecord
100
AcDbBlockTableRecord
  2
A$C0E736477
  0
BLOCK_RECORD
  5
15CE
100
AcDbSymbolTableRecord
100
AcDbBlockTableRecord
  2
A$C68E55F1B
  0
BLOCK_RECORD
  5
162C
100
AcDbSymbolTableRecord
100
AcDbBlockTableRecord
  2
*D16
  0
BLOCK_RECORD
  5
1639
100
AcDbSymbolTableRecord
100
AcDbBlockTableRecord
  2
A$C50CE67E4
  0
BLOCK_RECORD
  5
16DC
100
AcDbSymbolTableRecord
100
AcDbBlockTableRecord
  2
A$C01E076B9
  0
BLOCK_RECORD
  5
1701
100
AcDbSymbolTableRecord
100
AcDbBlockTableRecord
  2
*D19
  0
BLOCK_RECORD
  5
170E
100
AcDbSymbolTableRecord
100
AcDbBlockTableRecord
  2
*D20
  0
BLOCK_RECORD
  5
171B
100
AcDbSymbolTableRecord
100
AcDbBlockTableRecord
  2
*D21
  0
BLOCK_RECORD
  5
1728
100
AcDbSymbolTableRecord
100
AcDbBlockTableRecord
  2
*D22
  0
BLOCK_RECORD
  5
1735
100
AcDbSymbolTableRecord
100
AcDbBlockTableRecord
  2
A$C22617621
  0
BLOCK_RECORD
  5
18A4
100
AcDbSymbolTableRecord
100
AcDbBlockTableRecord
  2
A$C6EA30A74
  0
BLOCK_RECORD
  5
18D7
100
AcDbSymbolTableRecord
100
AcDbBlockTableRecord
  2
A$C29EC1754
  0
BLOCK_RECORD
  5
19D4
100
AcDbSymbolTableRecord
100
AcDbBlockTableRecord
  2
A$C577F4D59
  0
BLOCK_RECORD
  5
19F5
100
AcDbSymbolTableRecord
100
AcDbBlockTableRecord
  2
A$C32EE7A19
  0
BLOCK_RECORD
  5
1B90
100
AcDbSymbolTableRecord
100
AcDbBlockTableRecord
  2
A$C598D1D97
  0
BLOCK_RECORD
  5
1BB1
100
AcDbSymbolTableRecord
100
AcDbBlockTableRecord
  2
A$C46616D22
  0
BLOCK_RECORD
  5
1D32
100
AcDbSymbolTableRecord
100
AcDbBlockTableRecord
  2
A$C41B945FE
  0
BLOCK_RECORD
  5
1D63
100
AcDbSymbolTableRecord
100
AcDbBlockTableRecord
  2
A$C62DD5C26
  0
ENDTAB
  0
ENDSEC
  0
SECTION
  2
BLOCKS
  0
BLOCK
  5
423
100
AcDbEntity
  8
0
100
AcDbBlockBegin
  2
*MODEL_SPACE
 70
     0
 10
0.0
 20
0.0
 30
0.0
  3
*MODEL_SPACE
  1

  0
ENDBLK
  5
424
100
AcDbEntity
  8
0
100
AcDbBlockEnd
  0
BLOCK
  5
421
100
AcDbEntity
 67
     1
  8
0
100
AcDbBlockBegin
  2
*PAPER_SPACE
 70
     0
 10
0.0
 20
0.0
 30
0.0
  3
*PAPER_SPACE
  1

  0
ENDBLK
  5
422
100
AcDbEntity
 67
     1
  8
0
100
AcDbBlockEnd
  0
BLOCK
  5
F6
100
AcDbEntity
  8
0
100
AcDbBlockBegin
  2
AVE_RENDER
 70
     0
 10
0.0
 20
0.0
 30
0.0
  3
AVE_RENDER
  1
AVE_RENDER
  0
ENDBLK
  5
F7
100
AcDbEntity
  8
0
100
AcDbBlockEnd
  0
BLOCK
  5
1184
100
AcDbEntity
  8
0
100
AcDbBlockBegin
  2
A$C31B725D5
 70
     0
 10
0.0
 20
0.0
 30
0.0
  3
A$C31B725D5
  1

  0
TEXT
  5
1183
100
AcDbEntity
  8
0
100
AcDbText
 10
0.0
 20
0.0
 30
0.0
 40
5.0
  1
平型ハンドル車
 41
0.7
  7
BIGFONT
100
AcDbText
  0
ENDBLK
  5
1185
100
AcDbEntity
  8
0
100
AcDbBlockEnd
  0
BLOCK
  5
11E6
100
AcDbEntity
  8
0
100
AcDbBlockBegin
  2
A$C5CFE5BB2
 70
     0
 10
0.0
 20
0.0
 30
0.0
  3
A$C5CFE5BB2
  1

  0
ARC
  5
11DC
100
AcDbEntity
  8
3
100
AcDbCircle
 10
26.505888
 20
-9.518297
 30
0.0
 40
25.508766
100
AcDbArc
 50
61.953
 51
131.810447
  0
ARC
  5
11DD
100
AcDbEntity
  8
3
100
AcDbCircle
 10
26.505888
 20
25.507847
 30
0.0
 40
25.508766
100
AcDbArc
 50
228.189553
 51
298.047
  0
LINE
  5
11DE
100
AcDbEntity
  8
1
100
AcDbLine
 10
53.5
 20
7.994775
 30
0.0
 11
0.0
 21
7.994775
 31
0.0
  0
ARC
  5
11DF
100
AcDbEntity
  8
3
100
AcDbCircle
 10
10.125
 20
7.994775
 30
0.0
 40
1.625
100
AcDbArc
 50
112.619865
 51
247.380135
  0
ARC
  5
11E0
100
AcDbEntity
  8
3
100
AcDbCircle
 10
45.0
 20
33.619775
 30
0.0
 40
21.625
100
AcDbArc
 50
252.507675
 51
287.492325
  0
ARC
  5
11E1
100
AcDbEntity
  8
3
100
AcDbCircle
 10
45.0
 20
-17.630225
 30
0.0
 40
21.625
100
AcDbArc
 50
72.507675
 51
107.492325
  0
LINE
  5
11E2
100
AcDbEntity
  8
1
100
AcDbLine
 10
53.5
 20
7.994775
 30
0.0
 11
74.5
 21
7.994775
 31
0.0
  0
LINE
  5
11E3
100
AcDbEntity
  8
3
100
AcDbLine
 10
51.5
 20
2.994775
 30
0.0
 11
51.5
 21
12.994775
 31
0.0
  0
LINE
  5
11E4
100
AcDbEntity
  8
3
100
AcDbLine
 10
58.5
 20
2.994775
 30
0.0
 11
51.5
 21
2.994775
 31
0.0
  0
LINE
  5
11E5
100
AcDbEntity
  8
3
100
AcDbLine
 10
51.5
 20
12.994775
 30
0.0
 11
58.5
 21
12.994775
 31
0.0
  0
ENDBLK
  5
11E7
100
AcDbEntity
  8
0
100
AcDbBlockEnd
  0
BLOCK
  5
120B
100
AcDbEntity
  8
0
100
AcDbBlockBegin
  2
*D3
 70
     1
 10
0.0
 20
0.0
 30
0.0
  3
*D3
  1

  0
LINE
  5
1201
100
AcDbEntity
  8
0
  6
BYBLOCK
 62
     0
100
AcDbLine
 10
276.528196
 20
206.302995
 30
0.0
 11
235.305533
 21
206.302995
 31
0.0
  0
LINE
  5
1202
100
AcDbEntity
  8
0
  6
BYBLOCK
 62
     0
100
AcDbLine
 10
276.528196
 20
66.302995
 30
0.0
 11
235.305533
 21
66.302995
 31
0.0
  0
LINE
  5
1203
100
AcDbEntity
  8
0
  6
BYBLOCK
 62
     0
100
AcDbLine
 10
236.305533
 20
204.302995
 30
0.0
 11
236.305533
 21
140.871967
 31
0.0
  0
LINE
  5
1204
100
AcDbEntity
  8
0
  6
BYBLOCK
 62
     0
100
AcDbLine
 10
236.305533
 20
68.302995
 30
0.0
 11
236.305533
 21
130.9553
 31
0.0
  0
SOLID
  5
1205
100
AcDbEntity
  8
0
  6
BYBLOCK
 62
     0
100
AcDbTrace
 10
235.972199
 20
204.302995
 30
0.0
 11
236.638866
 21
204.302995
 31
0.0
 12
236.305533
 22
206.302995
 32
0.0
 13
236.305533
 23
206.302995
 33
0.0
  0
SOLID
  5
1206
100
AcDbEntity
  8
0
  6
BYBLOCK
 62
     0
100
AcDbTrace
 10
235.972199
 20
68.302995
 30
0.0
 11
236.638866
 21
68.302995
 31
0.0
 12
236.305533
 22
66.302995
 32
0.0
 13
236.305533
 23
66.302995
 33
0.0
  0
MTEXT
  5
1207
100
AcDbEntity
  8
0
  6
BYBLOCK
 62
     0
100
AcDbMText
 10
236.305533
 20
135.913634
 30
0.0
 40
4.0
 41
0.0
 71
     5
 72
     5
  1
\A1;140
 11
0.0
 21
1.0
 31
0.0
  0
POINT
  5
1208
100
AcDbEntity
  8
DEFPOINTS
  6
BYBLOCK
 62
     0
100
AcDbPoint
 10
277.528196
 20
206.302995
 30
0.0
  0
POINT
  5
1209
100
AcDbEntity
  8
DEFPOINTS
  6
BYBLOCK
 62
     0
100
AcDbPoint
 10
277.528196
 20
66.302995
 30
0.0
  0
POINT
  5
120A
100
AcDbEntity
  8
DEFPOINTS
  6
BYBLOCK
 62
     0
100
AcDbPoint
 10
236.305533
 20
66.302995
 30
0.0
  0
ENDBLK
  5
120C
100
AcDbEntity
  8
0
100
AcDbBlockEnd
  0
BLOCK
  5
1270
100
AcDbEntity
  8
0
100
AcDbBlockBegin
  2
A$C29A46910
 70
     0
 10
0.0
 20
0.0
 30
0.0
  3
A$C29A46910
  1

  0
ARC
  5
120E
100
AcDbEntity
  8
3
100
AcDbCircle
 10
77.04886
 20
77.5
 30
8.416617
 40
61.0
100
AcDbArc
 50
0.0
 51
90.0
  0
LINE
  5
120F
100
AcDbEntity
  8
1
100
AcDbLine
 10
-0.45114
 20
77.5
 30
8.416617
 11
152.54886
 21
77.5
 31
8.416617
  0
CIRCLE
  5
1210
100
AcDbEntity
  8
3
100
AcDbCircle
 10
77.04886
 20
77.5
 30
8.416617
 40
70.0
  0
ARC
  5
1211
100
AcDbEntity
  8
3
100
AcDbCircle
 10
77.04886
 20
77.5
 30
8.416617
 40
18.0
100
AcDbArc
 50
270.0
 51
90.0
  0
ARC
  5
1212
100
AcDbEntity
  8
3
100
AcDbCircle
 10
77.04886
 20
77.5
 30
8.416617
 40
22.0
100
AcDbArc
 50
355.583002
 51
64.416998
  0
ARC
  5
1213
100
AcDbEntity
  8
3
100
AcDbCircle
 10
77.04886
 20
77.5
 30
8.416617
 40
19.488389
100
AcDbArc
 50
270.0
 51
90.0
  0
ARC
  5
1214
100
AcDbEntity
  8
3
100
AcDbCircle
 10
77.04886
 20
77.5
 30
8.416617
 40
52.0
100
AcDbArc
 50
339.966766
 51
80.033234
  0
ARC
  5
1215
100
AcDbEntity
  8
3
100
AcDbCircle
 10
77.04886
 20
77.5
 30
8.416617
 40
52.0
100
AcDbArc
 50
99.966766
 51
200.033234
  0
ARC
  5
1216
100
AcDbEntity
  8
3
100
AcDbCircle
 10
77.04886
 20
77.5
 30
8.416617
 40
18.0
100
AcDbArc
 50
90.0
 51
270.0
  0
ARC
  5
1217
100
AcDbEntity
  8
3
100
AcDbCircle
 10
77.04886
 20
77.5
 30
8.416617
 40
22.0
100
AcDbArc
 50
115.583002
 51
184.416998
  0
ARC
  5
1218
100
AcDbEntity
  8
3
100
AcDbCircle
 10
77.04886
 20
77.5
 30
8.416617
 40
19.25514
100
AcDbArc
 50
90.0
 51
270.0
  0
LINE
  5
1219
100
AcDbEntity
  8
1
100
AcDbLine
 10
77.04886
 20
155.0
 30
8.416617
 11
77.04886
 21
0.0
 31
8.416617
  0
ARC
  5
121A
100
AcDbEntity
  8
3
100
AcDbCircle
 10
77.04886
 20
77.5
 30
8.416617
 40
61.0
100
AcDbArc
 50
100.388858
 51
0.0
  0
LINE
  5
121B
100
AcDbEntity
  8
1
100
AcDbLine
 10
77.04886
 20
77.5
 30
8.416617
 11
11.844377
 21
39.854174
 31
8.416617
  0
LINE
  5
121C
100
AcDbEntity
  8
1
100
AcDbLine
 10
77.04886
 20
77.5
 30
8.416617
 11
142.036836
 21
39.979174
 31
8.416617
  0
ARC
  5
121D
100
AcDbEntity
  8
3
100
AcDbCircle
 10
77.04886
 20
77.5
 30
8.416617
 40
22.0
100
AcDbArc
 50
235.583002
 51
304.416998
  0
ARC
  5
121E
100
AcDbEntity
  8
3
100
AcDbCircle
 10
77.04886
 20
77.5
 30
8.416617
 40
52.0
100
AcDbArc
 50
219.966766
 51
320.033234
  0
LINE
  5
121F
100
AcDbEntity
  8
3
100
AcDbLine
 10
55.114201
 20
75.805674
 30
8.416617
 11
28.195168
 21
59.686612
 31
8.416617
  0
LINE
  5
1220
100
AcDbEntity
  8
3
100
AcDbLine
 10
64.614201
 20
59.351191
 30
8.416617
 11
37.195168
 21
44.098155
 31
8.416617
  0
ARC
  5
1221
100
AcDbEntity
  8
3
100
AcDbCircle
 10
55.460136
 20
65.035744
 30
8.416617
 40
28.709586
100
AcDbArc
 50
193.129921
 51
226.870079
  0
ARC
  5
1222
100
AcDbEntity
  8
3
100
AcDbCircle
 10
36.498006
 20
45.554313
 30
8.416617
 40
1.614445
100
AcDbArc
 50
245.662844
 51
295.583615
  0
ARC
  5
1223
100
AcDbEntity
  8
3
100
AcDbCircle
 10
29.107657
 20
58.354773
 30
8.416617
 40
1.614445
100
AcDbArc
 50
124.416385
 51
174.337156
  0
ARC
  5
1224
100
AcDbEntity
  8
3
100
AcDbCircle
 10
80.612438
 20
79.557433
 30
8.416617
 40
25.041839
100
AcDbArc
 50
190.022534
 51
229.977466
  0
ARC
  5
1225
100
AcDbEntity
  8
3
100
AcDbCircle
 10
64.083596
 20
59.816763
 30
8.416617
 40
0.705903
100
AcDbArc
 50
318.735141
 51
53.010996
  0
ARC
  5
1226
100
AcDbEntity
  8
3
100
AcDbCircle
 10
55.252095
 20
75.11337
 30
8.416617
 40
0.705903
100
AcDbArc
 50
6.989004
 51
101.264859
  0
LINE
  5
1227
100
AcDbEntity
  8
3
100
AcDbLine
 10
98.983519
 20
75.805674
 30
8.416617
 11
125.902552
 21
59.686612
 31
8.416617
  0
LINE
  5
1228
100
AcDbEntity
  8
3
100
AcDbLine
 10
89.483519
 20
59.351191
 30
8.416617
 11
116.902552
 21
44.098155
 31
8.416617
  0
TEXT
  5
1229
100
AcDbEntity
  8
3
100
AcDbText
 10
96.705593
 20
63.084936
 30
8.416617
 40
5.0
  1
S/SN-140
 50
330.0
 41
0.75
  7
BIGFONT
100
AcDbText
  0
ARC
  5
122A
100
AcDbEntity
  8
3
100
AcDbCircle
 10
98.845624
 20
75.11337
 30
8.416617
 40
0.705903
100
AcDbArc
 50
78.735141
 51
173.010996
  0
ARC
  5
122B
100
AcDbEntity
  8
3
100
AcDbCircle
 10
73.485282
 20
79.557433
 30
8.416617
 40
25.041839
100
AcDbArc
 50
310.022534
 51
349.977466
  0
ARC
  5
122C
100
AcDbEntity
  8
3
100
AcDbCircle
 10
90.014124
 20
59.816763
 30
8.416617
 40
0.705903
100
AcDbArc
 50
126.989004
 51
221.264859
  0
ARC
  5
122D
100
AcDbEntity
  8
3
100
AcDbCircle
 10
98.637584
 20
65.035744
 30
8.416617
 40
28.709586
100
AcDbArc
 50
313.129921
 51
346.870079
  0
ARC
  5
122E
100
AcDbEntity
  8
3
100
AcDbCircle
 10
117.599714
 20
45.554313
 30
8.416617
 40
1.614445
100
AcDbArc
 50
244.416385
 51
294.337156
  0
ARC
  5
122F
100
AcDbEntity
  8
3
100
AcDbCircle
 10
124.990063
 20
58.354773
 30
8.416617
 40
1.614445
100
AcDbArc
 50
5.662844
 51
55.583615
  0
ARC
  5
1230
100
AcDbEntity
  8
3
100
AcDbCircle
 10
77.04886
 20
102.428511
 30
8.416617
 40
28.709586
100
AcDbArc
 50
73.129921
 51
81.029997
  0
ARC
  5
1231
100
AcDbEntity
  8
3
100
AcDbCircle
 10
77.04886
 20
135.5
 30
8.416617
 40
6.5
100
AcDbArc
 50
270.0
 51
0.0
  0
ARC
  5
1232
100
AcDbEntity
  8
3
100
AcDbCircle
 10
77.04886
 20
73.385134
 30
8.416617
 40
25.041839
100
AcDbArc
 50
70.022534
 51
109.977466
  0
LINE
  5
1233
100
AcDbEntity
  8
1
100
AcDbLine
 10
55.04886
 20
135.5
 30
8.416617
 11
92.051792
 21
135.5
 31
8.416617
  0
LINE
  5
1234
100
AcDbEntity
  8
3
100
AcDbLine
 10
67.54886
 20
97.343135
 30
8.416617
 11
68.04886
 21
128.715232
 31
8.416617
  0
ARC
  5
1235
100
AcDbEntity
  8
3
100
AcDbCircle
 10
68.217359
 20
97.569866
 30
8.416617
 40
0.705903
100
AcDbArc
 50
198.735141
 51
293.010996
  0
ARC
  5
1236
100
AcDbEntity
  8
3
100
AcDbCircle
 10
66.163858
 20
134.554001
 30
8.416617
 40
2.948243
100
AcDbArc
 50
358.950496
 51
109.367232
  0
ARC
  5
1237
100
AcDbEntity
  8
3
100
AcDbCircle
 10
69.658511
 20
128.590913
 30
8.416617
 40
1.614445
100
AcDbArc
 50
125.662844
 51
175.583615
  0
ARC
  5
1238
100
AcDbEntity
  8
3
100
AcDbCircle
 10
77.04886
 20
135.5
 30
8.416617
 40
8.0
100
AcDbArc
 50
180.0
 51
270.0
  0
ARC
  5
1239
100
AcDbEntity
  8
3
100
AcDbCircle
 10
77.04886
 20
102.428511
 30
8.416617
 40
28.709586
100
AcDbArc
 50
102.494618
 51
106.870079
  0
LINE
  5
123A
100
AcDbEntity
  8
3
100
AcDbLine
 10
86.54886
 20
97.343135
 30
8.416617
 11
86.04886
 21
128.715232
 31
8.416617
  0
ARC
  5
123B
100
AcDbEntity
  8
3
100
AcDbCircle
 10
85.88036
 20
97.569866
 30
8.416617
 40
0.705903
100
AcDbArc
 50
246.989004
 51
341.264859
  0
ARC
  5
123C
100
AcDbEntity
  8
3
100
AcDbCircle
 10
84.439209
 20
128.590913
 30
8.416617
 40
1.614445
100
AcDbArc
 50
4.416385
 51
54.337156
  0
ARC
  5
123D
100
AcDbEntity
  8
3
100
AcDbCircle
 10
77.04886
 20
135.5
 30
8.416617
 40
8.0
100
AcDbArc
 50
15.115832
 51
18.405055
  0
ARC
  5
123E
100
AcDbEntity
  8
3
100
AcDbCircle
 10
86.126879
 20
135.390096
 30
8.416617
 40
2.580361
100
AcDbArc
 50
102.944502
 51
181.053857
  0
DIMENSION
  5
123F
100
AcDbEntity
  8
0
100
AcDbDimension
  2
*D3
 10
183.326197
 20
7.5
 30
8.416617
 11
183.326197
 21
77.110639
 31
8.416617
 12
-52.979336
 22
-58.802995
 32
8.416617
 70
   128
  3
STANDARD
100
AcDbAlignedDimension
 13
224.54886
 23
147.5
 33
8.416617
 14
224.54886
 24
7.5
 34
8.416617
 50
90.0
100
AcDbRotatedDimension
1001
ACAD
1000
DSTYLE
1002
{
1070
   140
1040
4.0
1070
    77
1070
     0
1070
    40
1040
1.0
1070
   141
1040
0.0
1070
    41
1040
2.0
1002
}
  0
LINE
  5
1240
100
AcDbEntity
  8
3
100
AcDbLine
 10
248.54886
 20
77.5
 30
8.416617
 11
248.54886
 21
61.5
 31
8.416617
  0
LINE
  5
1241
100
AcDbEntity
  8
3
100
AcDbLine
 10
216.54886
 20
77.5
 30
8.416617
 11
216.54886
 21
59.5
 31
8.416617
  0
LINE
  5
1242
100
AcDbEntity
  8
1
100
AcDbLine
 10
224.54886
 20
154.0
 30
8.416617
 11
224.54886
 21
0.0
 31
8.416617
  0
LINE
  5
1243
100
AcDbEntity
  8
3
100
AcDbLine
 10
215.54886
 20
16.5
 30
8.416617
 11
215.54886
 21
77.5
 31
8.416617
  0
LINE
  5
1244
100
AcDbEntity
  8
3
100
AcDbLine
 10
233.54886
 20
16.5
 30
8.416617
 11
233.54886
 21
59.5
 31
8.416617
  0
ARC
  5
1245
100
AcDbEntity
  8
3
100
AcDbCircle
 10
224.54886
 20
16.5
 30
8.416617
 40
9.0
100
AcDbArc
 50
180.0
 51
0.0
  0
ARC
  5
1246
100
AcDbEntity
  8
3
100
AcDbCircle
 10
224.54886
 20
18.5
 30
8.416617
 40
7.0
100
AcDbArc
 50
4.096044
 51
175.903956
  0
ARC
  5
1247
100
AcDbEntity
  8
3
100
AcDbCircle
 10
214.474765
 20
19.431325
 30
8.416617
 40
3.121914
100
AcDbArc
 50
290.123814
 51
357.377737
  0
ARC
  5
1248
100
AcDbEntity
  8
3
100
AcDbCircle
 10
234.622954
 20
19.431325
 30
8.416617
 40
3.121914
100
AcDbArc
 50
182.622263
 51
249.876186
  0
LINE
  5
1249
100
AcDbEntity
  8
3
100
AcDbLine
 10
246.54886
 20
59.5
 30
8.416617
 11
233.54886
 21
59.5
 31
8.416617
  0
LINE
  5
124A
100
AcDbEntity
  8
3
100
AcDbLine
 10
219.869804
 20
56.539558
 30
8.416617
 11
219.989931
 21
51.755961
 31
8.416617
  0
LINE
  5
124B
100
AcDbEntity
  8
3
100
AcDbLine
 10
229.185057
 20
56.519637
 30
8.416617
 11
229.063766
 21
51.815634
 31
8.416617
  0
ARC
  5
124C
100
AcDbEntity
  8
2
100
AcDbCircle
 10
234.167566
 20
51.785514
 30
8.416617
 40
14.172783
100
AcDbArc
 50
161.881981
 51
179.804311
  0
ARC
  5
124D
100
AcDbEntity
  8
2
100
AcDbCircle
 10
211.499635
 20
51.51241
 30
8.416617
 40
17.561899
100
AcDbArc
 50
1.048988
 51
15.486833
  0
ARC
  5
124E
100
AcDbEntity
  8
3
100
AcDbCircle
 10
224.580029
 20
47.662953
 30
8.416617
 40
3.588064
100
AcDbArc
 50
210.25976
 51
329.74024
  0
ARC
  5
124F
100
AcDbEntity
  8
3
100
AcDbCircle
 10
232.781511
 20
51.909837
 30
8.416617
 40
12.820609
100
AcDbArc
 50
180.440379
 51
208.18274
  0
ARC
  5
1250
100
AcDbEntity
  8
3
100
AcDbCircle
 10
215.115941
 20
51.990387
 30
8.416617
 40
13.981441
100
AcDbArc
 50
333.970477
 51
358.989926
  0
ARC
  5
1251
100
AcDbEntity
  8
2
100
AcDbCircle
 10
224.543147
 20
63.604804
 30
8.416617
 40
4.253617
100
AcDbArc
 50
213.018674
 51
326.981326
  0
ARC
  5
1252
100
AcDbEntity
  8
2
100
AcDbCircle
 10
224.580029
 20
55.975414
 30
8.416617
 40
3.711329
100
AcDbArc
 50
33.377736
 51
146.622264
  0
ARC
  5
1253
100
AcDbEntity
  8
2
100
AcDbCircle
 10
224.639298
 20
71.460717
 30
8.416617
 40
4.345898
100
AcDbArc
 50
35.414823
 51
145.730599
  0
ARC
  5
1254
100
AcDbEntity
  8
3
100
AcDbCircle
 10
225.54886
 20
69.55
 30
8.416617
 40
14.05
100
AcDbArc
 50
235.291951
 51
304.708049
  0
LINE
  5
1255
100
AcDbEntity
  8
2
100
AcDbLine
 10
219.810842
 20
66.912819
 30
8.416617
 11
219.870538
 21
56.410429
 31
8.416617
  0
ARC
  5
1256
100
AcDbEntity
  8
2
100
AcDbCircle
 10
236.72757
 20
67.508568
 30
8.416617
 40
16.93529
100
AcDbArc
 50
157.798486
 51
201.553855
  0
LINE
  5
1257
100
AcDbEntity
  8
3
100
AcDbLine
 10
216.54886
 20
59.5
 30
8.416617
 11
217.54886
 21
58.0
 31
8.416617
  0
ARC
  5
1258
100
AcDbEntity
  8
2
100
AcDbCircle
 10
233.127308
 20
51.936039
 30
8.416617
 40
13.138534
100
AcDbArc
 50
152.428754
 51
161.185492
  0
ARC
  5
1259
100
AcDbEntity
  8
2
100
AcDbCircle
 10
211.466301
 20
67.726783
 30
8.416617
 40
17.845913
100
AcDbArc
 50
338.847147
 51
20.508831
  0
LINE
  5
125A
100
AcDbEntity
  8
2
100
AcDbLine
 10
229.302552
 20
66.972492
 30
8.416617
 11
229.183159
 21
56.350757
 31
8.416617
  0
ARC
  5
125B
100
AcDbEntity
  8
2
100
AcDbCircle
 10
215.438917
 20
51.936039
 30
8.416617
 40
13.667691
100
AcDbArc
 50
18.166802
 51
26.418957
  0
LINE
  5
125C
100
AcDbEntity
  8
3
100
AcDbLine
 10
233.54886
 20
59.5
 30
8.416617
 11
233.54886
 21
58.0
 31
8.416617
  0
ARC
  5
125D
100
AcDbEntity
  8
3
100
AcDbCircle
 10
246.54886
 20
61.5
 30
8.416617
 40
2.0
100
AcDbArc
 50
270.0
 51
0.0
  0
LINE
  5
125E
100
AcDbEntity
  8
3
100
AcDbLine
 10
229.29886
 20
98.426973
 30
8.416617
 11
229.071312
 21
128.200344
 31
8.416617
  0
LINE
  5
125F
100
AcDbEntity
  8
3
100
AcDbLine
 10
219.79886
 20
98.426973
 30
8.416617
 11
220.018033
 21
127.104604
 31
8.416617
  0
LINE
  5
1260
100
AcDbEntity
  8
3
100
AcDbLine
 10
233.54886
 20
138.5
 30
8.416617
 11
233.54886
 21
95.5
 31
8.416617
  0
LINE
  5
1261
100
AcDbEntity
  8
3
100
AcDbLine
 10
215.54886
 20
138.5
 30
8.416617
 11
215.54886
 21
77.5
 31
8.416617
  0
LINE
  5
1262
100
AcDbEntity
  8
3
100
AcDbLine
 10
246.54886
 20
95.5
 30
8.416617
 11
233.54886
 21
95.5
 31
8.416617
  0
LINE
  5
1263
100
AcDbEntity
  8
1
100
AcDbLine
 10
211.403851
 20
77.5
 30
8.416617
 11
254.04886
 21
77.5
 31
8.416617
  0
ARC
  5
1264
100
AcDbEntity
  8
3
100
AcDbCircle
 10
221.514808
 20
68.201045
 30
8.416617
 40
31.212149
100
AcDbArc
 50
67.321696
 51
75.558478
  0
ARC
  5
1265
100
AcDbEntity
  8
3
100
AcDbCircle
 10
224.54886
 20
88.45
 30
8.416617
 40
11.05
100
AcDbArc
 50
115.458946
 51
129.307648
  0
LINE
  5
1266
100
AcDbEntity
  8
3
100
AcDbLine
 10
216.54886
 20
77.5
 30
8.416617
 11
216.54886
 21
95.5
 31
8.416617
  0
LINE
  5
1267
100
AcDbEntity
  8
3
100
AcDbLine
 10
216.54886
 20
95.5
 30
8.416617
 11
217.54886
 21
97.0
 31
8.416617
  0
LINE
  5
1268
100
AcDbEntity
  8
3
100
AcDbLine
 10
233.54886
 20
95.5
 30
8.416617
 11
233.54886
 21
97.0
 31
8.416617
  0
LINE
  5
1269
100
AcDbEntity
  8
3
100
AcDbLine
 10
248.54886
 20
77.5
 30
8.416617
 11
248.54886
 21
93.5
 31
8.416617
  0
ARC
  5
126A
100
AcDbEntity
  8
3
100
AcDbCircle
 10
246.54886
 20
93.5
 30
8.416617
 40
2.0
100
AcDbArc
 50
0.0
 51
90.0
  0
ARC
  5
126B
100
AcDbEntity
  8
3
100
AcDbCircle
 10
224.54886
 20
138.5
 30
8.416617
 40
9.0
100
AcDbArc
 50
0.0
 51
180.0
  0
LINE
  5
126C
100
AcDbEntity
  8
3
100
AcDbLine
 10
215.54886
 20
127.5
 30
8.416617
 11
220.018033
 21
127.104604
 31
8.416617
  0
LINE
  5
126D
100
AcDbEntity
  8
3
100
AcDbLine
 10
231.504309
 20
129.0
 30
8.416617
 11
229.071312
 21
128.200344
 31
8.416617
  0
LINE
  5
126E
100
AcDbEntity
  8
3
100
AcDbLine
 10
231.504309
 20
135.711506
 30
8.416617
 11
231.504309
 21
129.0
 31
8.416617
  0
ARC
  5
126F
100
AcDbEntity
  8
3
100
AcDbCircle
 10
234.622954
 20
135.568674
 30
8.416617
 40
3.121914
100
AcDbArc
 50
110.123814
 51
177.377737
  0
ENDBLK
  5
1271
100
AcDbEntity
  8
0
100
AcDbBlockEnd
  0
BLOCK
  5
1318
100
AcDbEntity
  8
0
100
AcDbBlockBegin
  2
A$C5E405B83
 70
     0
 10
0.0
 20
0.0
 30
0.0
  3
A$C5E405B83
  1

  0
ARC
  5
130E
100
AcDbEntity
  8
3
100
AcDbCircle
 10
26.505888
 20
-9.518297
 30
0.0
 40
25.508766
100
AcDbArc
 50
61.953
 51
131.810447
  0
ARC
  5
130F
100
AcDbEntity
  8
3
100
AcDbCircle
 10
26.505888
 20
25.507847
 30
0.0
 40
25.508766
100
AcDbArc
 50
228.189553
 51
298.047
  0
LINE
  5
1310
100
AcDbEntity
  8
1
100
AcDbLine
 10
53.5
 20
7.994775
 30
0.0
 11
0.0
 21
7.994775
 31
0.0
  0
ARC
  5
1311
100
AcDbEntity
  8
3
100
AcDbCircle
 10
10.125
 20
7.994775
 30
0.0
 40
1.625
100
AcDbArc
 50
112.619865
 51
247.380135
  0
ARC
  5
1312
100
AcDbEntity
  8
3
100
AcDbCircle
 10
45.0
 20
33.619775
 30
0.0
 40
21.625
100
AcDbArc
 50
252.507675
 51
287.492325
  0
ARC
  5
1313
100
AcDbEntity
  8
3
100
AcDbCircle
 10
45.0
 20
-17.630225
 30
0.0
 40
21.625
100
AcDbArc
 50
72.507675
 51
107.492325
  0
LINE
  5
1314
100
AcDbEntity
  8
1
100
AcDbLine
 10
53.5
 20
7.994775
 30
0.0
 11
74.5
 21
7.994775
 31
0.0
  0
LINE
  5
1315
100
AcDbEntity
  8
3
100
AcDbLine
 10
51.5
 20
2.994775
 30
0.0
 11
51.5
 21
12.994775
 31
0.0
  0
LINE
  5
1316
100
AcDbEntity
  8
3
100
AcDbLine
 10
58.5
 20
2.994775
 30
0.0
 11
51.5
 21
2.994775
 31
0.0
  0
LINE
  5
1317
100
AcDbEntity
  8
3
100
AcDbLine
 10
51.5
 20
12.994775
 30
0.0
 11
58.5
 21
12.994775
 31
0.0
  0
ENDBLK
  5
1319
100
AcDbEntity
  8
0
100
AcDbBlockEnd
  0
BLOCK
  5
1393
100
AcDbEntity
  8
0
100
AcDbBlockBegin
  2
A$C28A64BA6
 70
     0
 10
0.0
 20
0.0
 30
0.0
  3
A$C28A64BA6
  1

  0
ARC
  5
1332
100
AcDbEntity
  8
3
100
AcDbCircle
 10
93.065991
 20
82.920448
 30
0.0
 40
49.840896
100
AcDbArc
 50
320.180627
 51
339.819373
  0
LINE
  5
1333
100
AcDbEntity
  8
3
100
AcDbLine
 10
98.471809
 20
67.675042
 30
0.0
 11
129.979391
 21
50.638831
 31
0.0
  0
ARC
  5
1334
100
AcDbEntity
  8
3
100
AcDbCircle
 10
78.934009
 20
82.920448
 30
0.0
 40
49.840896
100
AcDbArc
 50
200.180627
 51
219.819373
  0
LINE
  5
1335
100
AcDbEntity
  8
3
100
AcDbLine
 10
73.528191
 20
67.675042
 30
0.0
 11
42.020609
 21
50.638831
 31
0.0
  0
ARC
  5
1336
100
AcDbEntity
  8
3
100
AcDbCircle
 10
86.0
 20
87.0
 30
0.0
 40
66.0
100
AcDbArc
 50
103.582692
 51
90.0
  0
CIRCLE
  5
1337
100
AcDbEntity
  8
3
100
AcDbCircle
 10
86.0
 20
87.0
 30
0.0
 40
75.0
  0
LINE
  5
1338
100
AcDbEntity
  8
1
100
AcDbLine
 10
86.0
 20
87.0
 30
0.0
 11
9.789764
 21
43.0
 31
0.0
  0
LINE
  5
1339
100
AcDbEntity
  8
1
100
AcDbLine
 10
86.0
 20
171.0
 30
0.0
 11
86.0
 21
0.0
 31
0.0
  0
ARC
  5
133A
100
AcDbEntity
  8
3
100
AcDbCircle
 10
86.0
 20
87.0
 30
0.0
 40
57.0
100
AcDbArc
 50
219.59593
 51
320.40407
  0
ARC
  5
133B
100
AcDbEntity
  8
3
100
AcDbCircle
 10
90.330127
 20
89.5
 30
0.0
 40
62.847304
100
AcDbArc
 50
217.549754
 51
217.772986
  0
ARC
  5
133C
100
AcDbEntity
  8
3
100
AcDbCircle
 10
41.657145
 20
52.021909
 30
0.0
 40
1.430039
100
AcDbArc
 50
225.389911
 51
284.72404
  0
ARC
  5
133D
100
AcDbEntity
  8
3
100
AcDbCircle
 10
130.342856
 20
52.021909
 30
0.0
 40
1.430039
100
AcDbArc
 50
255.27596
 51
314.610089
  0
ARC
  5
133E
100
AcDbEntity
  8
3
100
AcDbCircle
 10
71.492533
 20
145.674061
 30
0.0
 40
5.569208
100
AcDbArc
 50
24.685853
 51
100.265979
  0
ARC
  5
133F
100
AcDbEntity
  8
3
100
AcDbCircle
 10
86.0
 20
87.0
 30
0.0
 40
22.34126
100
AcDbArc
 50
184.835271
 51
235.164729
  0
ARC
  5
1340
100
AcDbEntity
  8
3
100
AcDbCircle
 10
86.0
 20
87.0
 30
0.0
 40
57.0
100
AcDbArc
 50
99.59593
 51
200.40407
  0
LINE
  5
1341
100
AcDbEntity
  8
1
100
AcDbLine
 10
67.0
 20
149.0
 30
0.0
 11
104.0
 21
149.0
 31
0.0
  0
ARC
  5
1342
100
AcDbEntity
  8
3
100
AcDbCircle
 10
86.0
 20
87.0
 30
0.0
 40
23.0
100
AcDbArc
 50
117.162888
 51
182.837112
  0
CIRCLE
  5
1343
100
AcDbEntity
  8
3
100
AcDbCircle
 10
86.0
 20
87.0
 30
0.0
 40
19.0
  0
LINE
  5
1344
100
AcDbEntity
  8
1
100
AcDbLine
 10
0.0
 20
87.0
 30
0.0
 11
171.0
 21
87.0
 31
0.0
  0
LINE
  5
1345
100
AcDbEntity
  8
3
100
AcDbLine
 10
63.028191
 20
85.861576
 30
0.0
 11
32.520609
 21
67.093314
 31
0.0
  0
ARC
  5
1346
100
AcDbEntity
  8
3
100
AcDbCircle
 10
33.536657
 20
66.087006
 30
0.0
 40
1.430039
100
AcDbArc
 50
135.27596
 51
194.610089
  0
ARC
  5
1347
100
AcDbEntity
  8
3
100
AcDbCircle
 10
62.66367
 20
84.803169
 30
0.0
 40
1.11942
100
AcDbArc
 50
16.271951
 51
70.996005
  0
ARC
  5
1348
100
AcDbEntity
  8
3
100
AcDbCircle
 10
86.0
 20
87.0
 30
0.0
 40
57.0
100
AcDbArc
 50
339.59593
 51
80.40407
  0
ARC
  5
1349
100
AcDbEntity
  8
3
100
AcDbCircle
 10
86.0
 20
149.0
 30
0.0
 40
7.757032
100
AcDbArc
 50
270.0
 51
352.593084
  0
ARC
  5
134A
100
AcDbEntity
  8
3
100
AcDbCircle
 10
86.0
 20
149.0
 30
0.0
 40
9.5
100
AcDbArc
 50
186.042328
 51
270.0
  0
LINE
  5
134B
100
AcDbEntity
  8
3
100
AcDbLine
 10
75.5
 20
107.463382
 30
0.0
 11
76.5
 21
143.267854
 31
0.0
  0
LINE
  5
134C
100
AcDbEntity
  8
3
100
AcDbLine
 10
96.5
 20
107.463382
 30
0.0
 11
95.5
 21
143.267854
 31
0.0
  0
TEXT
  5
134D
100
AcDbEntity
  8
3
100
AcDbText
 10
107.418113
 20
71.060417
 30
0.0
 40
5.0
  1
Ｓ/ＳＮ-150
 50
330.0
 41
0.75
  7
BIGFONT
100
AcDbText
  0
LINE
  5
134E
100
AcDbEntity
  8
3
100
AcDbLine
 10
108.971809
 20
85.861576
 30
0.0
 11
139.479391
 21
67.093314
 31
0.0
  0
ARC
  5
134F
100
AcDbEntity
  8
3
100
AcDbCircle
 10
86.0
 20
87.0
 30
0.0
 40
21.005952
100
AcDbArc
 50
270.0
 51
90.0
  0
ARC
  5
1350
100
AcDbEntity
  8
3
100
AcDbCircle
 10
86.0
 20
87.0
 30
0.0
 40
23.0
100
AcDbArc
 50
357.162888
 51
62.837112
  0
ARC
  5
1351
100
AcDbEntity
  8
3
100
AcDbCircle
 10
86.0
 20
87.0
 30
0.0
 40
22.34126
100
AcDbArc
 50
304.835271
 51
355.164729
  0
ARC
  5
1352
100
AcDbEntity
  8
3
100
AcDbCircle
 10
86.0
 20
87.0
 30
0.0
 40
23.0
100
AcDbArc
 50
237.162888
 51
302.837112
  0
ARC
  5
1353
100
AcDbEntity
  8
3
100
AcDbCircle
 10
72.429324
 20
67.888561
 30
0.0
 40
1.11942
100
AcDbArc
 50
349.003995
 51
43.728049
  0
ARC
  5
1354
100
AcDbEntity
  8
3
100
AcDbCircle
 10
99.570676
 20
67.888561
 30
0.0
 40
1.11942
100
AcDbArc
 50
136.271951
 51
190.996005
  0
ARC
  5
1355
100
AcDbEntity
  8
3
100
AcDbCircle
 10
109.33633
 20
84.803169
 30
0.0
 40
1.11942
100
AcDbArc
 50
109.003995
 51
163.728049
  0
ARC
  5
1356
100
AcDbEntity
  8
3
100
AcDbCircle
 10
86.0
 20
87.0
 30
0.0
 40
22.34126
100
AcDbArc
 50
64.835271
 51
115.164729
  0
ARC
  5
1357
100
AcDbEntity
  8
3
100
AcDbCircle
 10
76.234346
 20
108.30827
 30
0.0
 40
1.11942
100
AcDbArc
 50
229.003995
 51
283.728049
  0
ARC
  5
1358
100
AcDbEntity
  8
3
100
AcDbCircle
 10
95.765654
 20
108.30827
 30
0.0
 40
1.11942
100
AcDbArc
 50
256.271951
 51
310.996005
  0
ARC
  5
1359
100
AcDbEntity
  8
3
100
AcDbCircle
 10
81.669873
 20
89.5
 30
0.0
 40
62.847304
100
AcDbArc
 50
337.549754
 51
337.772986
  0
ARC
  5
135A
100
AcDbEntity
  8
3
100
AcDbCircle
 10
138.463343
 20
66.087006
 30
0.0
 40
1.430039
100
AcDbArc
 50
345.389911
 51
44.72404
  0
ARC
  5
135B
100
AcDbEntity
  8
3
100
AcDbCircle
 10
86.0
 20
95.159104
 30
0.0
 40
49.840896
100
AcDbArc
 50
99.541656
 51
99.819373
  0
ARC
  5
135C
100
AcDbEntity
  8
3
100
AcDbCircle
 10
86.0
 20
82.0
 30
0.0
 40
62.847304
100
AcDbArc
 50
97.549754
 51
97.772986
  0
ARC
  5
135D
100
AcDbEntity
  8
3
100
AcDbCircle
 10
77.879513
 20
142.891084
 30
0.0
 40
1.430039
100
AcDbArc
 50
105.389911
 51
164.72404
  0
ARC
  5
135E
100
AcDbEntity
  8
3
100
AcDbCircle
 10
98.993271
 20
145.901937
 30
0.0
 40
5.701063
100
AcDbArc
 50
82.465676
 51
158.406905
  0
ARC
  5
135F
100
AcDbEntity
  8
3
100
AcDbCircle
 10
86.0
 20
95.159104
 30
0.0
 40
49.840896
100
AcDbArc
 50
80.180627
 51
82.643976
  0
ARC
  5
1360
100
AcDbEntity
  8
3
100
AcDbCircle
 10
94.120487
 20
142.891084
 30
0.0
 40
1.430039
100
AcDbArc
 50
15.27596
 51
74.610089
  0
ARC
  5
1361
100
AcDbEntity
  8
3
100
AcDbCircle
 10
263.816125
 20
59.0
 30
0.0
 40
15.062713
100
AcDbArc
 50
180.170207
 51
203.474109
  0
ARC
  5
1362
100
AcDbEntity
  8
3
100
AcDbCircle
 10
243.183875
 20
59.0
 30
0.0
 40
15.062713
100
AcDbArc
 50
336.525891
 51
358.829286
  0
LINE
  5
1363
100
AcDbEntity
  8
3
100
AcDbLine
 10
244.5
 20
87.0
 30
0.0
 11
244.5
 21
21.0
 31
0.0
  0
LINE
  5
1364
100
AcDbEntity
  8
3
100
AcDbLine
 10
262.5
 20
21.0
 30
0.0
 11
262.5
 21
56.841786
 31
0.0
  0
LINE
  5
1365
100
AcDbEntity
  8
1
100
AcDbLine
 10
253.5
 20
166.5
 30
0.0
 11
253.5
 21
5.0
 31
0.0
  0
LINE
  5
1366
100
AcDbEntity
  8
1
100
AcDbLine
 10
253.5
 20
21.0
 30
0.0
 11
266.314036
 21
21.0
 31
0.0
  0
ARC
  5
1367
100
AcDbEntity
  8
3
100
AcDbCircle
 10
253.5
 20
24.0
 30
0.0
 40
6.0
100
AcDbArc
 50
0.940343
 51
179.059657
  0
ARC
  5
1368
100
AcDbEntity
  8
3
100
AcDbCircle
 10
253.5
 20
21.0
 30
0.0
 40
9.0
100
AcDbArc
 50
180.0
 51
0.0
  0
LINE
  5
1369
100
AcDbEntity
  8
1
100
AcDbLine
 10
253.5
 20
21.0
 30
0.0
 11
241.81703
 21
21.0
 31
0.0
  0
ARC
  5
136A
100
AcDbEntity
  8
3
100
AcDbCircle
 10
244.013003
 20
24.473995
 30
0.0
 40
3.507964
100
AcDbArc
 50
277.979934
 51
0.424744
  0
ARC
  5
136B
100
AcDbEntity
  8
3
100
AcDbCircle
 10
253.5
 20
54.41347
 30
0.0
 40
3.774639
100
AcDbArc
 50
213.726517
 51
338.008749
  0
ARC
  5
136C
100
AcDbEntity
  8
3
100
AcDbCircle
 10
253.5
 20
54.41347
 30
0.0
 40
3.774639
100
AcDbArc
 50
201.991251
 51
326.273483
  0
ARC
  5
136D
100
AcDbEntity
  8
3
100
AcDbCircle
 10
262.986998
 20
24.473995
 30
0.0
 40
3.507964
100
AcDbArc
 50
179.575256
 51
262.020066
  0
LINE
  5
136E
100
AcDbEntity
  8
3
100
AcDbLine
 10
260.5
 20
152.0
 30
0.0
 11
260.5
 21
141.5
 31
0.0
  0
LINE
  5
136F
100
AcDbEntity
  8
3
100
AcDbLine
 10
262.5
 20
153.0
 30
0.0
 11
262.5
 21
138.0
 31
0.0
  0
LINE
  5
1370
100
AcDbEntity
  8
3
100
AcDbLine
 10
244.5
 20
87.0
 30
0.0
 11
244.5
 21
153.0
 31
0.0
  0
LINE
  5
1371
100
AcDbEntity
  8
3
100
AcDbLine
 10
258.243443
 20
58.692248
 30
0.0
 11
258.559572
 21
64.549306
 31
0.0
  0
LINE
  5
1372
100
AcDbEntity
  8
3
100
AcDbLine
 10
260.5
 20
141.5
 30
0.0
 11
258.329503
 21
140.461936
 31
0.0
  0
LINE
  5
1373
100
AcDbEntity
  8
3
100
AcDbLine
 10
258.329503
 20
140.461936
 30
0.0
 11
259.25
 21
109.40273
 31
0.0
  0
ARC
  5
1374
100
AcDbEntity
  8
3
100
AcDbCircle
 10
254.033961
 20
91.081152
 30
0.0
 40
18.918806
100
AcDbArc
 50
63.417029
 51
113.290642
  0
ARC
  5
1375
100
AcDbEntity
  8
2
100
AcDbCircle
 10
242.707908
 20
76.75
 30
0.0
 40
16.520005
100
AcDbArc
 50
337.769774
 51
22.230226
  0
ARC
  5
1376
100
AcDbEntity
  8
3
100
AcDbCircle
 10
254.033961
 20
82.918847
 30
0.0
 40
18.918806
100
AcDbArc
 50
246.709358
 51
296.582971
  0
LINE
  5
1377
100
AcDbEntity
  8
1
100
AcDbLine
 10
238.75
 20
87.0
 30
0.0
 11
283.107548
 21
87.0
 31
0.0
  0
LINE
  5
1378
100
AcDbEntity
  8
3
100
AcDbLine
 10
245.5
 20
106.0
 30
0.0
 11
245.5
 21
87.0
 31
0.0
  0
ARC
  5
1379
100
AcDbEntity
  8
2
100
AcDbCircle
 10
265.313658
 20
76.75
 30
0.0
 40
16.53997
100
AcDbArc
 50
157.798037
 51
202.201963
  0
LINE
  5
137A
100
AcDbEntity
  8
3
100
AcDbLine
 10
245.5
 20
68.0
 30
0.0
 11
245.5
 21
87.0
 31
0.0
  0
LINE
  5
137B
100
AcDbEntity
  8
2
100
AcDbLine
 10
248.753479
 20
64.751907
 30
0.0
 11
248.744736
 21
76.253223
 31
0.0
  0
LINE
  5
137C
100
AcDbEntity
  8
3
100
AcDbLine
 10
248.753479
 20
58.955254
 30
0.0
 11
248.753479
 21
64.751907
 31
0.0
  0
ARC
  5
137D
100
AcDbEntity
  8
2
100
AcDbCircle
 10
254.0
 20
71.919422
 30
0.0
 40
4.24438
100
AcDbArc
 50
199.537509
 51
340.462491
  0
LINE
  5
137E
100
AcDbEntity
  8
3
100
AcDbLine
 10
245.5
 20
68.0
 30
0.0
 11
246.55355
 21
65.541716
 31
0.0
  0
ARC
  5
137F
100
AcDbEntity
  8
2
100
AcDbCircle
 10
254.0
 20
81.635125
 30
0.0
 40
4.22645
100
AcDbArc
 50
18.840598
 51
161.159402
  0
LINE
  5
1380
100
AcDbEntity
  8
3
100
AcDbLine
 10
248.657474
 20
139.5
 30
0.0
 11
248.75
 21
109.40273
 31
0.0
  0
LINE
  5
1381
100
AcDbEntity
  8
3
100
AcDbLine
 10
245.5
 20
106.0
 30
0.0
 11
246.55355
 21
108.458283
 31
0.0
  0
LINE
  5
1382
100
AcDbEntity
  8
3
100
AcDbLine
 10
244.5
 20
139.5
 30
0.0
 11
248.657474
 21
139.5
 31
0.0
  0
LINE
  5
1383
100
AcDbEntity
  8
3
100
AcDbLine
 10
278.5
 20
87.0
 30
0.0
 11
278.5
 21
103.0
 31
0.0
  0
LINE
  5
1384
100
AcDbEntity
  8
3
100
AcDbLine
 10
278.5
 20
87.0
 30
0.0
 11
278.5
 21
71.0
 31
0.0
  0
LINE
  5
1385
100
AcDbEntity
  8
3
100
AcDbLine
 10
275.5
 20
68.0
 30
0.0
 11
262.5
 21
68.0
 31
0.0
  0
LINE
  5
1386
100
AcDbEntity
  8
2
100
AcDbLine
 10
258.559572
 20
64.549306
 30
0.0
 11
259.213938
 21
75.115817
 31
0.0
  0
LINE
  5
1387
100
AcDbEntity
  8
3
100
AcDbLine
 10
262.5
 20
59.280547
 30
0.0
 11
262.5
 21
66.25
 31
0.0
  0
LINE
  5
1388
100
AcDbEntity
  8
3
100
AcDbLine
 10
262.5
 20
56.841786
 30
0.0
 11
262.5
 21
59.280547
 31
0.0
  0
LINE
  5
1389
100
AcDbEntity
  8
3
100
AcDbLine
 10
262.5
 20
68.0
 30
0.0
 11
262.5
 21
66.0
 31
0.0
  0
ARC
  5
138A
100
AcDbEntity
  8
3
100
AcDbCircle
 10
275.5
 20
71.0
 30
0.0
 40
3.0
100
AcDbArc
 50
270.0
 51
0.0
  0
LINE
  5
138B
100
AcDbEntity
  8
3
100
AcDbLine
 10
262.5
 20
133.256072
 30
0.0
 11
262.5
 21
108.0
 31
0.0
  0
LINE
  5
138C
100
AcDbEntity
  8
3
100
AcDbLine
 10
275.5
 20
106.0
 30
0.0
 11
262.5
 21
106.0
 31
0.0
  0
LINE
  5
138D
100
AcDbEntity
  8
3
100
AcDbLine
 10
262.5
 20
106.0
 30
0.0
 11
262.5
 21
108.0
 31
0.0
  0
ARC
  5
138E
100
AcDbEntity
  8
3
100
AcDbCircle
 10
275.5
 20
103.0
 30
0.0
 40
3.0
100
AcDbArc
 50
0.0
 51
90.0
  0
LINE
  5
138F
100
AcDbEntity
  8
3
100
AcDbLine
 10
262.5
 20
138.0
 30
0.0
 11
262.5
 21
133.256072
 31
0.0
  0
LINE
  5
1390
100
AcDbEntity
  8
1
100
AcDbLine
 10
237.891592
 20
149.0
 30
0.0
 11
266.540035
 21
149.0
 31
0.0
  0
ARC
  5
1391
100
AcDbEntity
  8
3
100
AcDbCircle
 10
253.5
 20
153.0
 30
0.0
 40
9.0
100
AcDbArc
 50
0.0
 51
180.0
  0
ARC
  5
1392
100
AcDbEntity
  8
3
100
AcDbCircle
 10
262.986998
 20
149.526005
 30
0.0
 40
3.507964
100
AcDbArc
 50
97.979934
 51
135.150169
  0
ENDBLK
  5
1394
100
AcDbEntity
  8
0
100
AcDbBlockEnd
  0
BLOCK
  5
13A0
100
AcDbEntity
  8
0
100
AcDbBlockBegin
  2
*D7
 70
     1
 10
0.0
 20
0.0
 30
0.0
  3
*D7
  1

  0
LINE
  5
1396
100
AcDbEntity
  8
0
  6
BYBLOCK
 62
     0
100
AcDbLine
 10
299.286314
 20
170.726622
 30
0.0
 11
299.286314
 21
234.489655
 31
0.0
  0
LINE
  5
1397
100
AcDbEntity
  8
0
  6
BYBLOCK
 62
     0
100
AcDbLine
 10
315.286314
 20
165.726622
 30
0.0
 11
315.286314
 21
234.489655
 31
0.0
  0
LINE
  5
1398
100
AcDbEntity
  8
0
  6
BYBLOCK
 62
     0
100
AcDbLine
 10
301.286314
 20
233.489655
 30
0.0
 11
304.767566
 21
233.489655
 31
0.0
  0
LINE
  5
1399
100
AcDbEntity
  8
0
  6
BYBLOCK
 62
     0
100
AcDbLine
 10
313.286314
 20
233.489655
 30
0.0
 11
311.3509
 21
233.489655
 31
0.0
  0
SOLID
  5
139A
100
AcDbEntity
  8
0
  6
BYBLOCK
 62
     0
100
AcDbTrace
 10
301.286314
 20
233.822988
 30
0.0
 11
301.286314
 21
233.156322
 31
0.0
 12
299.286314
 22
233.489655
 32
0.0
 13
299.286314
 23
233.489655
 33
0.0
  0
SOLID
  5
139B
100
AcDbEntity
  8
0
  6
BYBLOCK
 62
     0
100
AcDbTrace
 10
313.286314
 20
233.822988
 30
0.0
 11
313.286314
 21
233.156322
 31
0.0
 12
315.286314
 22
233.489655
 32
0.0
 13
315.286314
 23
233.489655
 33
0.0
  0
MTEXT
  5
139C
100
AcDbEntity
  8
0
  6
BYBLOCK
 62
     0
100
AcDbMText
 10
308.059233
 20
233.489655
 30
0.0
 40
4.0
 41
0.0
 71
     5
 72
     5
  1
\A1;16
  0
POINT
  5
139D
100
AcDbEntity
  8
DEFPOINTS
  6
BYBLOCK
 62
     0
100
AcDbPoint
 10
299.286314
 20
169.726622
 30
0.0
  0
POINT
  5
139E
100
AcDbEntity
  8
DEFPOINTS
  6
BYBLOCK
 62
     0
100
AcDbPoint
 10
315.286314
 20
164.726622
 30
0.0
  0
POINT
  5
139F
100
AcDbEntity
  8
DEFPOINTS
  6
BYBLOCK
 62
     0
100
AcDbPoint
 10
315.286314
 20
233.489655
 30
0.0
  0
ENDBLK
  5
13A1
100
AcDbEntity
  8
0
100
AcDbBlockEnd
  0
BLOCK
  5
13AD
100
AcDbEntity
  8
0
100
AcDbBlockBegin
  2
*D8
 70
     1
 10
0.0
 20
0.0
 30
0.0
  3
*D8
  1

  0
LINE
  5
13A3
100
AcDbEntity
  8
0
  6
BYBLOCK
 62
     0
100
AcDbLine
 10
289.286314
 20
223.726622
 30
0.0
 11
255.074409
 21
223.726622
 31
0.0
  0
LINE
  5
13A4
100
AcDbEntity
  8
0
  6
BYBLOCK
 62
     0
100
AcDbLine
 10
289.286314
 20
73.726622
 30
0.0
 11
255.074409
 21
73.726622
 31
0.0
  0
LINE
  5
13A5
100
AcDbEntity
  8
0
  6
BYBLOCK
 62
     0
100
AcDbLine
 10
256.074409
 20
221.726622
 30
0.0
 11
256.074409
 21
154.028285
 31
0.0
  0
LINE
  5
13A6
100
AcDbEntity
  8
0
  6
BYBLOCK
 62
     0
100
AcDbLine
 10
256.074409
 20
75.726622
 30
0.0
 11
256.074409
 21
144.111618
 31
0.0
  0
SOLID
  5
13A7
100
AcDbEntity
  8
0
  6
BYBLOCK
 62
     0
100
AcDbTrace
 10
255.741076
 20
221.726622
 30
0.0
 11
256.407742
 21
221.726622
 31
0.0
 12
256.074409
 22
223.726622
 32
0.0
 13
256.074409
 23
223.726622
 33
0.0
  0
SOLID
  5
13A8
100
AcDbEntity
  8
0
  6
BYBLOCK
 62
     0
100
AcDbTrace
 10
255.741076
 20
75.726622
 30
0.0
 11
256.407742
 21
75.726622
 31
0.0
 12
256.074409
 22
73.726622
 32
0.0
 13
256.074409
 23
73.726622
 33
0.0
  0
MTEXT
  5
13A9
100
AcDbEntity
  8
0
  6
BYBLOCK
 62
     0
100
AcDbMText
 10
256.074409
 20
149.069952
 30
0.0
 40
4.0
 41
0.0
 71
     5
 72
     5
  1
\A1;150
 11
0.0
 21
1.0
 31
0.0
  0
POINT
  5
13AA
100
AcDbEntity
  8
DEFPOINTS
  6
BYBLOCK
 62
     0
100
AcDbPoint
 10
290.286314
 20
223.726622
 30
0.0
  0
POINT
  5
13AB
100
AcDbEntity
  8
DEFPOINTS
  6
BYBLOCK
 62
     0
100
AcDbPoint
 10
290.286314
 20
73.726622
 30
0.0
  0
POINT
  5
13AC
100
AcDbEntity
  8
DEFPOINTS
  6
BYBLOCK
 62
     0
100
AcDbPoint
 10
256.074409
 20
73.726622
 30
0.0
  0
ENDBLK
  5
13AE
100
AcDbEntity
  8
0
100
AcDbBlockEnd
  0
BLOCK
  5
13B3
100
AcDbEntity
  8
0
100
AcDbBlockBegin
  2
A$C50765934
 70
     0
 10
0.0
 20
0.0
 30
0.0
  3
A$C50765934
  1

  0
INSERT
  5
13B0
100
AcDbEntity
  8
0
100
AcDbBlockReference
  2
A$C28A64BA6
 10
-0.496239
 20
0.0
 30
9.257983
  0
DIMENSION
  5
13B1
100
AcDbEntity
  8
0
100
AcDbDimension
  2
*D8
 10
218.791857
 20
12.0
 30
9.257983
 11
218.791857
 21
87.34333
 31
9.257983
 12
-37.282552
 22
-61.726622
 32
9.257983
 70
   128
  3
STANDARD
100
AcDbAlignedDimension
 13
253.003761
 23
162.0
 33
9.257983
 14
253.003761
 24
12.0
 34
9.257983
 50
90.0
100
AcDbRotatedDimension
1001
ACAD
1000
DSTYLE
1002
{
1070
   140
1040
4.0
1070
    77
1070
     0
1070
    40
1040
1.0
1070
   141
1040
0.0
1070
    41
1040
2.0
1002
}
  0
DIMENSION
  5
13B2
100
AcDbEntity
  8
0
100
AcDbDimension
  2
*D7
 10
278.003761
 20
171.763033
 30
9.257983
 11
270.776681
 21
171.763033
 31
9.257983
 12
-37.282552
 22
-61.726622
 32
9.257983
 70
   128
  3
STANDARD
100
AcDbAlignedDimension
 13
262.003761
 23
108.0
 33
9.257983
 14
278.003761
 24
103.0
 34
9.257983
100
AcDbRotatedDimension
1001
ACAD
1000
DSTYLE
1002
{
1070
   140
1040
4.0
1070
    77
1070
     0
1070
    40
1040
1.0
1070
   141
1040
0.0
1070
    41
1040
2.0
1002
}
  0
ENDBLK
  5
13B4
100
AcDbEntity
  8
0
100
AcDbBlockEnd
  0
BLOCK
  5
1474
100
AcDbEntity
  8
0
100
AcDbBlockBegin
  2
A$C12236B7C
 70
     0
 10
0.0
 20
0.0
 30
0.0
  3
A$C12236B7C
  1

  0
ARC
  5
1469
100
AcDbEntity
  8
3
100
AcDbCircle
 10
24.975
 20
32.461185
 30
0.0
 40
32.461535
100
AcDbArc
 50
229.748095
 51
297.571522
  0
ARC
  5
146A
100
AcDbEntity
  8
3
100
AcDbCircle
 10
24.975
 20
-12.088815
 30
0.0
 40
32.461535
100
AcDbArc
 50
62.428478
 51
130.251905
  0
LINE
  5
146B
100
AcDbEntity
  8
1
100
AcDbLine
 10
55.5
 20
10.186185
 30
0.0
 11
0.0
 21
10.186185
 31
0.0
  0
ARC
  5
146C
100
AcDbEntity
  8
3
100
AcDbCircle
 10
5.333333
 20
10.186185
 30
0.0
 40
2.833333
100
AcDbArc
 50
118.072487
 51
241.927513
  0
LINE
  5
146D
100
AcDbEntity
  8
3
100
AcDbLine
 10
58.5
 20
16.686185
 30
0.0
 11
62.0
 21
16.686185
 31
0.0
  0
LINE
  5
146E
100
AcDbEntity
  8
3
100
AcDbLine
 10
64.5
 20
3.686185
 30
0.0
 11
58.5
 21
3.686185
 31
0.0
  0
LINE
  5
146F
100
AcDbEntity
  8
1
100
AcDbLine
 10
58.5
 20
10.186185
 30
0.0
 11
84.0
 21
10.186185
 31
0.0
  0
LINE
  5
1470
100
AcDbEntity
  8
3
100
AcDbLine
 10
58.5
 20
3.686185
 30
0.0
 11
58.5
 21
16.686185
 31
0.0
  0
ARC
  5
1471
100
AcDbEntity
  8
3
100
AcDbCircle
 10
49.25
 20
-16.688815
 30
0.0
 40
22.376397
100
AcDbArc
 50
65.582534
 51
114.417466
  0
ARC
  5
1472
100
AcDbEntity
  8
3
100
AcDbCircle
 10
49.25
 20
37.061185
 30
0.0
 40
22.376397
100
AcDbArc
 50
245.582534
 51
294.417466
  0
LINE
  5
1473
100
AcDbEntity
  8
3
100
AcDbLine
 10
66.5
 20
16.686185
 30
0.0
 11
62.0
 21
16.686185
 31
0.0
  0
ENDBLK
  5
1475
100
AcDbEntity
  8
0
100
AcDbBlockEnd
  0
BLOCK
  5
14EF
100
AcDbEntity
  8
0
100
AcDbBlockBegin
  2
A$C1E8C0F59
 70
     0
 10
0.0
 20
0.0
 30
0.0
  3
A$C1E8C0F59
  1

  0
LINE
  5
148F
100
AcDbEntity
  8
1
100
AcDbLine
 10
86.0
 20
87.0
 30
0.0
 11
9.789764
 21
43.0
 31
0.0
  0
ARC
  5
1490
100
AcDbEntity
  8
3
100
AcDbCircle
 10
86.0
 20
87.0
 30
0.0
 40
62.847304
100
AcDbArc
 50
322.227014
 51
337.772986
  0
LINE
  5
1491
100
AcDbEntity
  8
3
100
AcDbLine
 10
98.471809
 20
67.675043
 30
0.0
 11
134.309518
 21
48.138832
 31
0.0
  0
ARC
  5
1492
100
AcDbEntity
  8
3
100
AcDbCircle
 10
86.0
 20
87.0
 30
0.0
 40
62.847304
100
AcDbArc
 50
202.227014
 51
217.772986
  0
LINE
  5
1493
100
AcDbEntity
  8
3
100
AcDbLine
 10
73.528191
 20
67.675043
 30
0.0
 11
37.690482
 21
48.138832
 31
0.0
  0
ARC
  5
1494
100
AcDbEntity
  8
3
100
AcDbCircle
 10
86.0
 20
87.0
 30
0.0
 40
71.0
100
AcDbArc
 50
101.372282
 51
90.0
  0
CIRCLE
  5
1495
100
AcDbEntity
  8
3
100
AcDbCircle
 10
86.0
 20
87.0
 30
0.0
 40
80.0
  0
LINE
  5
1496
100
AcDbEntity
  8
1
100
AcDbLine
 10
86.0
 20
171.0
 30
0.0
 11
86.0
 21
0.0
 31
0.0
  0
ARC
  5
1497
100
AcDbEntity
  8
3
100
AcDbCircle
 10
86.0
 20
87.0
 30
0.0
 40
62.0
100
AcDbArc
 50
218.813913
 51
321.186087
  0
ARC
  5
1498
100
AcDbEntity
  8
3
100
AcDbCircle
 10
37.327017
 20
49.52191
 30
0.0
 40
1.430039
100
AcDbArc
 50
225.389911
 51
284.72404
  0
ARC
  5
1499
100
AcDbEntity
  8
3
100
AcDbCircle
 10
134.672982
 20
49.52191
 30
0.0
 40
1.430039
100
AcDbArc
 50
255.27596
 51
314.610089
  0
LINE
  5
149A
100
AcDbEntity
  8
1
100
AcDbLine
 10
67.0
 20
154.0
 30
0.0
 11
104.0
 21
154.0
 31
0.0
  0
ARC
  5
149B
100
AcDbEntity
  8
3
100
AcDbCircle
 10
86.0
 20
87.0
 30
0.0
 40
22.34126
100
AcDbArc
 50
184.835271
 51
235.164729
  0
ARC
  5
149C
100
AcDbEntity
  8
3
100
AcDbCircle
 10
86.0
 20
87.0
 30
0.0
 40
23.0
100
AcDbArc
 50
117.162888
 51
182.837112
  0
CIRCLE
  5
149D
100
AcDbEntity
  8
3
100
AcDbCircle
 10
86.0
 20
87.0
 30
0.0
 40
19.0
  0
ARC
  5
149E
100
AcDbEntity
  8
3
100
AcDbCircle
 10
86.0
 20
87.0
 30
0.0
 40
62.0
100
AcDbArc
 50
98.813913
 51
201.186087
  0
LINE
  5
149F
100
AcDbEntity
  8
1
100
AcDbLine
 10
0.0
 20
87.0
 30
0.0
 11
171.0
 21
87.0
 31
0.0
  0
LINE
  5
14A0
100
AcDbEntity
  8
3
100
AcDbLine
 10
63.028191
 20
85.861576
 30
0.0
 11
28.190482
 21
64.593314
 31
0.0
  0
ARC
  5
14A1
100
AcDbEntity
  8
3
100
AcDbCircle
 10
29.20653
 20
63.587006
 30
0.0
 40
1.430039
100
AcDbArc
 50
135.27596
 51
194.610089
  0
ARC
  5
14A2
100
AcDbEntity
  8
3
100
AcDbCircle
 10
62.66367
 20
84.80317
 30
0.0
 40
1.11942
100
AcDbArc
 50
16.271951
 51
70.996005
  0
ARC
  5
14A3
100
AcDbEntity
  8
3
100
AcDbCircle
 10
86.0
 20
87.0
 30
0.0
 40
62.0
100
AcDbArc
 50
338.813913
 51
81.186087
  0
LINE
  5
14A4
100
AcDbEntity
  8
3
100
AcDbLine
 10
75.5
 20
107.463382
 30
0.0
 11
76.5
 21
148.267855
 31
0.0
  0
LINE
  5
14A5
100
AcDbEntity
  8
3
100
AcDbLine
 10
96.5
 20
107.463382
 30
0.0
 11
95.5
 21
148.267855
 31
0.0
  0
TEXT
  5
14A6
100
AcDbEntity
  8
3
100
AcDbText
 10
111.878824
 20
69.375709
 30
0.0
 40
5.0
  1
S/SN-160
 50
330.0
 41
0.75
  7
BIGFONT
100
AcDbText
  0
LINE
  5
14A7
100
AcDbEntity
  8
3
100
AcDbLine
 10
108.971809
 20
85.861576
 30
0.0
 11
143.809518
 21
64.593314
 31
0.0
  0
ARC
  5
14A8
100
AcDbEntity
  8
3
100
AcDbCircle
 10
86.0
 20
87.0
 30
0.0
 40
21.005952
100
AcDbArc
 50
270.0
 51
90.0
  0
ARC
  5
14A9
100
AcDbEntity
  8
3
100
AcDbCircle
 10
86.0
 20
87.0
 30
0.0
 40
23.0
100
AcDbArc
 50
357.162888
 51
62.837112
  0
ARC
  5
14AA
100
AcDbEntity
  8
3
100
AcDbCircle
 10
86.0
 20
87.0
 30
0.0
 40
22.34126
100
AcDbArc
 50
304.835271
 51
355.164729
  0
ARC
  5
14AB
100
AcDbEntity
  8
3
100
AcDbCircle
 10
86.0
 20
87.0
 30
0.0
 40
23.0
100
AcDbArc
 50
237.162888
 51
302.837112
  0
ARC
  5
14AC
100
AcDbEntity
  8
3
100
AcDbCircle
 10
72.429324
 20
67.888561
 30
0.0
 40
1.11942
100
AcDbArc
 50
349.003995
 51
43.728049
  0
ARC
  5
14AD
100
AcDbEntity
  8
3
100
AcDbCircle
 10
99.570676
 20
67.888561
 30
0.0
 40
1.11942
100
AcDbArc
 50
136.271951
 51
190.996005
  0
ARC
  5
14AE
100
AcDbEntity
  8
3
100
AcDbCircle
 10
109.33633
 20
84.80317
 30
0.0
 40
1.11942
100
AcDbArc
 50
109.003995
 51
163.728049
  0
ARC
  5
14AF
100
AcDbEntity
  8
3
100
AcDbCircle
 10
86.0
 20
87.0
 30
0.0
 40
22.34126
100
AcDbArc
 50
64.835271
 51
115.164729
  0
ARC
  5
14B0
100
AcDbEntity
  8
3
100
AcDbCircle
 10
76.234346
 20
108.30827
 30
0.0
 40
1.11942
100
AcDbArc
 50
229.003995
 51
283.728049
  0
ARC
  5
14B1
100
AcDbEntity
  8
3
100
AcDbCircle
 10
95.765654
 20
108.30827
 30
0.0
 40
1.11942
100
AcDbArc
 50
256.271951
 51
310.996005
  0
ARC
  5
14B2
100
AcDbEntity
  8
3
100
AcDbCircle
 10
142.79347
 20
63.587006
 30
0.0
 40
1.430039
100
AcDbArc
 50
345.389911
 51
44.72404
  0
ARC
  5
14B3
100
AcDbEntity
  8
3
100
AcDbCircle
 10
86.0
 20
154.0
 30
0.0
 40
7.757032
100
AcDbArc
 50
270.0
 51
352.593084
  0
ARC
  5
14B4
100
AcDbEntity
  8
3
100
AcDbCircle
 10
86.0
 20
154.0
 30
0.0
 40
9.5
100
AcDbArc
 50
186.042328
 51
270.0
  0
ARC
  5
14B5
100
AcDbEntity
  8
3
100
AcDbCircle
 10
86.0
 20
87.0
 30
0.0
 40
62.847304
100
AcDbArc
 50
97.549754
 51
97.772986
  0
ARC
  5
14B6
100
AcDbEntity
  8
3
100
AcDbCircle
 10
77.879513
 20
147.891085
 30
0.0
 40
1.430039
100
AcDbArc
 50
105.389911
 51
164.72404
  0
ARC
  5
14B7
100
AcDbEntity
  8
3
100
AcDbCircle
 10
71.564567
 20
151.379222
 30
0.0
 40
5.244919
100
AcDbArc
 50
18.000111
 51
85.237824
  0
ARC
  5
14B8
100
AcDbEntity
  8
3
100
AcDbCircle
 10
86.0
 20
87.0
 30
0.0
 40
62.847304
100
AcDbArc
 50
82.227014
 51
84.212512
  0
ARC
  5
14B9
100
AcDbEntity
  8
3
100
AcDbCircle
 10
94.120487
 20
147.891085
 30
0.0
 40
1.430039
100
AcDbArc
 50
15.27596
 51
74.610089
  0
ARC
  5
14BA
100
AcDbEntity
  8
3
100
AcDbCircle
 10
99.255023
 20
151.02144
 30
0.0
 40
5.904112
100
AcDbArc
 50
96.899909
 51
160.420434
  0
ARC
  5
14BB
100
AcDbEntity
  8
3
100
AcDbCircle
 10
230.683875
 20
56.5
 30
0.0
 40
15.062713
100
AcDbArc
 50
336.525891
 51
1.034899
  0
ARC
  5
14BC
100
AcDbEntity
  8
3
100
AcDbCircle
 10
251.316125
 20
56.5
 30
0.0
 40
15.062713
100
AcDbArc
 50
178.965101
 51
203.474109
  0
LINE
  5
14BD
100
AcDbEntity
  8
3
100
AcDbLine
 10
232.0
 20
87.0
 30
0.0
 11
232.0
 21
16.0
 31
0.0
  0
LINE
  5
14BE
100
AcDbEntity
  8
3
100
AcDbLine
 10
250.0
 20
16.0
 30
0.0
 11
250.0
 21
56.841786
 31
0.0
  0
LINE
  5
14BF
100
AcDbEntity
  8
1
100
AcDbLine
 10
241.0
 20
171.5
 30
0.0
 11
241.0
 21
0.0
 31
0.0
  0
ARC
  5
14C0
100
AcDbEntity
  8
3
100
AcDbCircle
 10
241.0
 20
16.0
 30
0.0
 40
9.0
100
AcDbArc
 50
180.0
 51
0.0
  0
LINE
  5
14C1
100
AcDbEntity
  8
1
100
AcDbLine
 10
241.0
 20
16.0
 30
0.0
 11
253.814036
 21
16.0
 31
0.0
  0
ARC
  5
14C2
100
AcDbEntity
  8
3
100
AcDbCircle
 10
241.0
 20
19.0
 30
0.0
 40
6.0
100
AcDbArc
 50
0.940343
 51
179.059657
  0
LINE
  5
14C3
100
AcDbEntity
  8
1
100
AcDbLine
 10
241.0
 20
16.0
 30
0.0
 11
229.31703
 21
16.0
 31
0.0
  0
ARC
  5
14C4
100
AcDbEntity
  8
3
100
AcDbCircle
 10
231.513002
 20
19.473995
 30
0.0
 40
3.507964
100
AcDbArc
 50
277.979934
 51
0.424744
  0
ARC
  5
14C5
100
AcDbEntity
  8
3
100
AcDbCircle
 10
250.486997
 20
19.473995
 30
0.0
 40
3.507964
100
AcDbArc
 50
179.575256
 51
262.020066
  0
ARC
  5
14C6
100
AcDbEntity
  8
3
100
AcDbCircle
 10
241.0
 20
51.91347
 30
0.0
 40
3.774639
100
AcDbArc
 50
201.991251
 51
326.273483
  0
ARC
  5
14C7
100
AcDbEntity
  8
2
100
AcDbCircle
 10
241.447584
 20
51.699572
 30
0.0
 40
3.279666
100
AcDbArc
 50
322.980494
 51
338.545628
  0
LINE
  5
14C8
100
AcDbEntity
  8
3
100
AcDbLine
 10
236.168626
 20
144.5
 30
0.0
 11
236.25
 21
109.341261
 31
0.0
  0
LINE
  5
14C9
100
AcDbEntity
  8
3
100
AcDbLine
 10
245.814921
 20
145.881841
 30
0.0
 11
246.75
 21
109.341261
 31
0.0
  0
LINE
  5
14CA
100
AcDbEntity
  8
3
100
AcDbLine
 10
250.0
 20
158.0
 30
0.0
 11
250.0
 21
138.0
 31
0.0
  0
LINE
  5
14CB
100
AcDbEntity
  8
3
100
AcDbLine
 10
232.0
 20
87.0
 30
0.0
 11
232.0
 21
158.0
 31
0.0
  0
LINE
  5
14CC
100
AcDbEntity
  8
3
100
AcDbLine
 10
263.0
 20
68.0
 30
0.0
 11
250.0
 21
68.0
 31
0.0
  0
LINE
  5
14CD
100
AcDbEntity
  8
3
100
AcDbLine
 10
263.0
 20
106.0
 30
0.0
 11
250.0
 21
106.0
 31
0.0
  0
LINE
  5
14CE
100
AcDbEntity
  8
1
100
AcDbLine
 10
225.607979
 20
87.0
 30
0.0
 11
285.607548
 21
87.0
 31
0.0
  0
LINE
  5
14CF
100
AcDbEntity
  8
1
100
AcDbLine
 10
241.0
 20
87.0
 30
0.0
 11
241.0
 21
118.5
 31
0.0
  0
LINE
  5
14D0
100
AcDbEntity
  8
3
100
AcDbLine
 10
233.0
 20
106.0
 30
0.0
 11
233.0
 21
87.0
 31
0.0
  0
ARC
  5
14D1
100
AcDbEntity
  8
2
100
AcDbCircle
 10
230.207908
 20
76.75
 30
0.0
 40
16.520005
100
AcDbArc
 50
337.769774
 51
22.230226
  0
ARC
  5
14D2
100
AcDbEntity
  8
2
100
AcDbCircle
 10
252.813657
 20
76.75
 30
0.0
 40
16.53997
100
AcDbArc
 50
157.798037
 51
202.201963
  0
LINE
  5
14D3
100
AcDbEntity
  8
3
100
AcDbLine
 10
233.0
 20
68.0
 30
0.0
 11
233.0
 21
87.0
 31
0.0
  0
LINE
  5
14D4
100
AcDbEntity
  8
1
100
AcDbLine
 10
241.0
 20
87.0
 30
0.0
 11
241.0
 21
55.5
 31
0.0
  0
ARC
  5
14D5
100
AcDbEntity
  8
2
100
AcDbCircle
 10
241.5
 20
71.919422
 30
0.0
 40
4.24438
100
AcDbArc
 50
199.537509
 51
340.462491
  0
ARC
  5
14D6
100
AcDbEntity
  8
3
100
AcDbCircle
 10
241.533961
 20
82.918848
 30
0.0
 40
18.918806
100
AcDbArc
 50
246.709358
 51
296.582971
  0
LINE
  5
14D7
100
AcDbEntity
  8
2
100
AcDbLine
 10
236.279773
 20
64.744285
 30
0.0
 11
236.31493
 21
76.230582
 31
0.0
  0
LINE
  5
14D8
100
AcDbEntity
  8
3
100
AcDbLine
 10
236.255869
 20
56.772054
 30
0.0
 11
236.279773
 21
64.744285
 31
0.0
  0
LINE
  5
14D9
100
AcDbEntity
  8
3
100
AcDbLine
 10
233.0
 20
68.0
 30
0.0
 11
234.05355
 21
65.541717
 31
0.0
  0
LINE
  5
14DA
100
AcDbEntity
  8
2
100
AcDbLine
 10
246.148734
 20
64.571502
 30
0.0
 11
246.741132
 21
75.631665
 31
0.0
  0
LINE
  5
14DB
100
AcDbEntity
  8
3
100
AcDbLine
 10
250.0
 20
56.841786
 30
0.0
 11
250.0
 21
66.0
 31
0.0
  0
LINE
  5
14DC
100
AcDbEntity
  8
3
100
AcDbLine
 10
245.74413
 20
56.772054
 30
0.0
 11
246.148734
 21
64.571502
 31
0.0
  0
LINE
  5
14DD
100
AcDbEntity
  8
3
100
AcDbLine
 10
250.0
 20
68.0
 30
0.0
 11
250.0
 21
66.0
 31
0.0
  0
ARC
  5
14DE
100
AcDbEntity
  8
2
100
AcDbCircle
 10
241.5
 20
81.635126
 30
0.0
 40
4.22645
100
AcDbArc
 50
18.840598
 51
161.159402
  0
LINE
  5
14DF
100
AcDbEntity
  8
1
100
AcDbLine
 10
233.0
 20
87.0
 30
0.0
 11
242.0
 21
87.0
 31
0.0
  0
LINE
  5
14E0
100
AcDbEntity
  8
1
100
AcDbLine
 10
233.0
 20
87.0
 30
0.0
 11
242.0
 21
87.0
 31
0.0
  0
LINE
  5
14E1
100
AcDbEntity
  8
3
100
AcDbLine
 10
250.0
 20
138.0
 30
0.0
 11
250.0
 21
106.0
 31
0.0
  0
ARC
  5
14E2
100
AcDbEntity
  8
3
100
AcDbCircle
 10
241.533961
 20
91.081153
 30
0.0
 40
18.918806
100
AcDbArc
 50
63.417029
 51
113.290642
  0
LINE
  5
14E3
100
AcDbEntity
  8
3
100
AcDbLine
 10
233.0
 20
106.0
 30
0.0
 11
234.05355
 21
108.458284
 31
0.0
  0
LINE
  5
14E4
100
AcDbEntity
  8
3
100
AcDbLine
 10
250.0
 20
106.0
 30
0.0
 11
250.0
 21
108.0
 31
0.0
  0
LINE
  5
14E5
100
AcDbEntity
  8
3
100
AcDbLine
 10
266.0
 20
87.0
 30
0.0
 11
266.0
 21
103.0
 31
0.0
  0
LINE
  5
14E6
100
AcDbEntity
  8
3
100
AcDbLine
 10
266.0
 20
87.0
 30
0.0
 11
266.0
 21
71.0
 31
0.0
  0
ARC
  5
14E7
100
AcDbEntity
  8
3
100
AcDbCircle
 10
263.0
 20
71.0
 30
0.0
 40
3.0
100
AcDbArc
 50
270.0
 51
0.0
  0
ARC
  5
14E8
100
AcDbEntity
  8
3
100
AcDbCircle
 10
263.0
 20
103.0
 30
0.0
 40
3.0
100
AcDbArc
 50
0.0
 51
90.0
  0
LINE
  5
14E9
100
AcDbEntity
  8
1
100
AcDbLine
 10
226.0
 20
154.0
 30
0.0
 11
251.5
 21
154.0
 31
0.0
  0
ARC
  5
14EA
100
AcDbEntity
  8
3
100
AcDbCircle
 10
241.0
 20
158.0
 30
0.0
 40
9.0
100
AcDbArc
 50
0.0
 51
180.0
  0
LINE
  5
14EB
100
AcDbEntity
  8
3
100
AcDbLine
 10
232.0
 20
144.5
 30
0.0
 11
236.168626
 21
144.5
 31
0.0
  0
LINE
  5
14EC
100
AcDbEntity
  8
3
100
AcDbLine
 10
248.0
 20
157.0
 30
0.0
 11
248.0
 21
146.5
 31
0.0
  0
LINE
  5
14ED
100
AcDbEntity
  8
3
100
AcDbLine
 10
248.0
 20
146.5
 30
0.0
 11
245.814921
 21
145.881841
 31
0.0
  0
ARC
  5
14EE
100
AcDbEntity
  8
3
100
AcDbCircle
 10
250.486997
 20
154.526005
 30
0.0
 40
3.507964
100
AcDbArc
 50
97.979934
 51
135.150169
  0
ENDBLK
  5
14F0
100
AcDbEntity
  8
0
100
AcDbBlockEnd
  0
BLOCK
  5
14FC
100
AcDbEntity
  8
0
100
AcDbBlockBegin
  2
*D12
 70
     1
 10
0.0
 20
0.0
 30
0.0
  3
*D12
  1

  0
LINE
  5
14F2
100
AcDbEntity
  8
0
  6
BYBLOCK
 62
     0
100
AcDbLine
 10
281.545488
 20
220.68665
 30
0.0
 11
238.966435
 21
220.68665
 31
0.0
  0
LINE
  5
14F3
100
AcDbEntity
  8
0
  6
BYBLOCK
 62
     0
100
AcDbLine
 10
281.545488
 20
60.68665
 30
0.0
 11
238.966435
 21
60.68665
 31
0.0
  0
LINE
  5
14F4
100
AcDbEntity
  8
0
  6
BYBLOCK
 62
     0
100
AcDbLine
 10
239.966435
 20
218.68665
 30
0.0
 11
239.966435
 21
145.988313
 31
0.0
  0
LINE
  5
14F5
100
AcDbEntity
  8
0
  6
BYBLOCK
 62
     0
100
AcDbLine
 10
239.966435
 20
62.68665
 30
0.0
 11
239.966435
 21
136.071646
 31
0.0
  0
SOLID
  5
14F6
100
AcDbEntity
  8
0
  6
BYBLOCK
 62
     0
100
AcDbTrace
 10
239.633102
 20
218.68665
 30
0.0
 11
240.299769
 21
218.68665
 31
0.0
 12
239.966435
 22
220.68665
 32
0.0
 13
239.966435
 23
220.68665
 33
0.0
  0
SOLID
  5
14F7
100
AcDbEntity
  8
0
  6
BYBLOCK
 62
     0
100
AcDbTrace
 10
239.633102
 20
62.68665
 30
0.0
 11
240.299769
 21
62.68665
 31
0.0
 12
239.966435
 22
60.68665
 32
0.0
 13
239.966435
 23
60.68665
 33
0.0
  0
MTEXT
  5
14F8
100
AcDbEntity
  8
0
  6
BYBLOCK
 62
     0
100
AcDbMText
 10
239.966435
 20
141.02998
 30
0.0
 40
4.0
 41
0.0
 71
     5
 72
     5
  1
\A1;160
 11
0.0
 21
1.0
 31
0.0
  0
POINT
  5
14F9
100
AcDbEntity
  8
DEFPOINTS
  6
BYBLOCK
 62
     0
100
AcDbPoint
 10
282.545488
 20
220.68665
 30
0.0
  0
POINT
  5
14FA
100
AcDbEntity
  8
DEFPOINTS
  6
BYBLOCK
 62
     0
100
AcDbPoint
 10
282.545488
 20
60.68665
 30
0.0
  0
POINT
  5
14FB
100
AcDbEntity
  8
DEFPOINTS
  6
BYBLOCK
 62
     0
100
AcDbPoint
 10
239.966435
 20
60.68665
 30
0.0
  0
ENDBLK
  5
14FD
100
AcDbEntity
  8
0
100
AcDbBlockEnd
  0
BLOCK
  5
1501
100
AcDbEntity
  8
0
100
AcDbBlockBegin
  2
A$C325F7C1E
 70
     0
 10
0.0
 20
0.0
 30
0.0
  3
A$C325F7C1E
  1

  0
INSERT
  5
14FF
100
AcDbEntity
  8
0
100
AcDbBlockReference
  2
A$C1E8C0F59
 10
-0.482604
 20
0.0
 30
9.003616
  0
DIMENSION
  5
1500
100
AcDbEntity
  8
0
100
AcDbDimension
  2
*D12
 10
197.938343
 20
7.0
 30
9.003616
 11
197.938343
 21
87.343329
 31
9.003616
 12
-42.028092
 22
-53.68665
 32
9.003616
 70
   128
  3
STANDARD
100
AcDbAlignedDimension
 13
240.517396
 23
167.0
 33
9.003616
 14
240.517396
 24
7.0
 34
9.003616
 50
90.0
100
AcDbRotatedDimension
1001
ACAD
1000
DSTYLE
1002
{
1070
   140
1040
4.0
1070
    77
1070
     0
1070
    40
1040
1.0
1070
   141
1040
0.0
1070
    41
1040
2.0
1002
}
  0
ENDBLK
  5
1502
100
AcDbEntity
  8
0
100
AcDbBlockEnd
  0
BLOCK
  5
15B3
100
AcDbEntity
  8
0
100
AcDbBlockBegin
  2
A$C0E736477
 70
     0
 10
0.0
 20
0.0
 30
0.0
  3
A$C0E736477
  1

  0
ARC
  5
15A8
100
AcDbEntity
  8
3
100
AcDbCircle
 10
24.975
 20
32.461185
 30
0.0
 40
32.461535
100
AcDbArc
 50
229.748095
 51
297.571522
  0
ARC
  5
15A9
100
AcDbEntity
  8
3
100
AcDbCircle
 10
24.975
 20
-12.088815
 30
0.0
 40
32.461535
100
AcDbArc
 50
62.428478
 51
130.251905
  0
LINE
  5
15AA
100
AcDbEntity
  8
1
100
AcDbLine
 10
55.5
 20
10.186185
 30
0.0
 11
0.0
 21
10.186185
 31
0.0
  0
ARC
  5
15AB
100
AcDbEntity
  8
3
100
AcDbCircle
 10
5.333333
 20
10.186185
 30
0.0
 40
2.833333
100
AcDbArc
 50
118.072487
 51
241.927513
  0
LINE
  5
15AC
100
AcDbEntity
  8
3
100
AcDbLine
 10
58.5
 20
16.686185
 30
0.0
 11
62.0
 21
16.686185
 31
0.0
  0
LINE
  5
15AD
100
AcDbEntity
  8
3
100
AcDbLine
 10
64.5
 20
3.686185
 30
0.0
 11
58.5
 21
3.686185
 31
0.0
  0
LINE
  5
15AE
100
AcDbEntity
  8
1
100
AcDbLine
 10
58.5
 20
10.186185
 30
0.0
 11
84.0
 21
10.186185
 31
0.0
  0
LINE
  5
15AF
100
AcDbEntity
  8
3
100
AcDbLine
 10
58.5
 20
3.686185
 30
0.0
 11
58.5
 21
16.686185
 31
0.0
  0
ARC
  5
15B0
100
AcDbEntity
  8
3
100
AcDbCircle
 10
49.25
 20
-16.688815
 30
0.0
 40
22.376397
100
AcDbArc
 50
65.582534
 51
114.417466
  0
ARC
  5
15B1
100
AcDbEntity
  8
3
100
AcDbCircle
 10
49.25
 20
37.061185
 30
0.0
 40
22.376397
100
AcDbArc
 50
245.582534
 51
294.417466
  0
LINE
  5
15B2
100
AcDbEntity
  8
3
100
AcDbLine
 10
66.5
 20
16.686185
 30
0.0
 11
62.0
 21
16.686185
 31
0.0
  0
ENDBLK
  5
15B4
100
AcDbEntity
  8
0
100
AcDbBlockEnd
  0
BLOCK
  5
162A
100
AcDbEntity
  8
0
100
AcDbBlockBegin
  2
A$C68E55F1B
 70
     0
 10
0.0
 20
0.0
 30
0.0
  3
A$C68E55F1B
  1

  0
LINE
  5
15CF
100
AcDbEntity
  8
1
100
AcDbLine
 10
0.0
 20
100.5
 30
0.0
 11
193.366095
 21
100.5
 31
0.0
  0
TEXT
  5
15D0
100
AcDbEntity
  8
3
100
AcDbText
 10
121.306916
 20
82.11891
 30
0.0
 40
5.0
  1
Ｓ/ＳＮ-180
 50
330.0
 41
0.75
  7
BIGFONT
100
AcDbText
  0
LINE
  5
15D1
100
AcDbEntity
  8
1
100
AcDbLine
 10
94.5
 20
100.5
 30
0.0
 11
11.956416
 21
52.84344
 31
0.0
  0
ARC
  5
15D2
100
AcDbEntity
  8
3
100
AcDbCircle
 10
94.5
 20
100.5
 30
0.0
 40
23.5
100
AcDbArc
 50
236.539105
 51
303.460895
  0
ARC
  5
15D3
100
AcDbEntity
  8
3
100
AcDbCircle
 10
94.5
 20
100.5
 30
0.0
 40
70.0
100
AcDbArc
 50
337.799926
 51
82.200074
  0
LINE
  5
15D4
100
AcDbEntity
  8
3
100
AcDbLine
 10
107.457142
 20
80.894835
 30
0.0
 11
149.810907
 21
57.596578
 31
0.0
  0
LINE
  5
15D5
100
AcDbEntity
  8
3
100
AcDbLine
 10
117.957142
 20
99.081369
 30
0.0
 11
159.310907
 21
74.051061
 31
0.0
  0
LINE
  5
15D6
100
AcDbEntity
  8
3
100
AcDbLine
 10
71.042859
 20
99.081369
 30
0.0
 11
29.689094
 21
74.051061
 31
0.0
  0
LINE
  5
15D7
100
AcDbEntity
  8
3
100
AcDbLine
 10
81.542859
 20
80.894835
 30
0.0
 11
39.189094
 21
57.596578
 31
0.0
  0
ARC
  5
15D8
100
AcDbEntity
  8
3
100
AcDbCircle
 10
94.5
 20
100.5
 30
0.0
 40
80.0
100
AcDbArc
 50
100.806923
 51
90.0
  0
ARC
  5
15D9
100
AcDbEntity
  8
3
100
AcDbCircle
 10
94.5
 20
100.5
 30
0.0
 40
70.0
100
AcDbArc
 50
97.799926
 51
202.200074
  0
CIRCLE
  5
15DA
100
AcDbEntity
  8
3
100
AcDbCircle
 10
94.5
 20
100.5
 30
0.0
 40
90.0
  0
LINE
  5
15DB
100
AcDbEntity
  8
1
100
AcDbLine
 10
94.5
 20
195.0
 30
0.0
 11
94.5
 21
0.0
 31
0.0
  0
ARC
  5
15DC
100
AcDbEntity
  8
3
100
AcDbCircle
 10
94.5
 20
100.5
 30
0.0
 40
70.0
100
AcDbArc
 50
217.799926
 51
322.200074
  0
ARC
  5
15DD
100
AcDbEntity
  8
3
100
AcDbCircle
 10
31.167269
 20
72.09299
 30
0.0
 40
2.453373
100
AcDbArc
 50
127.049672
 51
199.79119
  0
ARC
  5
15DE
100
AcDbEntity
  8
3
100
AcDbCircle
 10
94.5
 20
100.5
 30
0.0
 40
71.858259
100
AcDbArc
 50
204.009006
 51
215.990994
  0
ARC
  5
15DF
100
AcDbEntity
  8
3
100
AcDbCircle
 10
38.232442
 20
59.855751
 30
0.0
 40
2.453373
100
AcDbArc
 50
220.20881
 51
292.950328
  0
ARC
  5
15E0
100
AcDbEntity
  8
3
100
AcDbCircle
 10
94.5
 20
100.5
 30
0.0
 40
71.858259
100
AcDbArc
 50
324.009006
 51
335.990994
  0
ARC
  5
15E1
100
AcDbEntity
  8
3
100
AcDbCircle
 10
150.767558
 20
59.855751
 30
0.0
 40
2.453373
100
AcDbArc
 50
247.049672
 51
319.79119
  0
ARC
  5
15E2
100
AcDbEntity
  8
3
100
AcDbCircle
 10
157.832732
 20
72.09299
 30
0.0
 40
2.453373
100
AcDbArc
 50
340.20881
 51
52.950328
  0
ARC
  5
15E3
100
AcDbEntity
  8
3
100
AcDbCircle
 10
94.5
 20
175.5
 30
0.0
 40
10.0
100
AcDbArc
 50
188.626927
 51
270.0
  0
LINE
  5
15E4
100
AcDbEntity
  8
3
100
AcDbLine
 10
84.0
 20
121.523796
 30
0.0
 11
85.0
 21
169.852361
 31
0.0
  0
LINE
  5
15E5
100
AcDbEntity
  8
3
100
AcDbLine
 10
105.0
 20
121.523796
 30
0.0
 11
104.0
 21
169.852361
 31
0.0
  0
CIRCLE
  5
15E6
100
AcDbEntity
  8
3
100
AcDbCircle
 10
94.5
 20
100.5
 30
0.0
 40
21.0
  0
ARC
  5
15E7
100
AcDbEntity
  8
3
100
AcDbCircle
 10
94.5
 20
100.5
 30
0.0
 40
23.5
100
AcDbArc
 50
356.539105
 51
63.460895
  0
ARC
  5
15E8
100
AcDbEntity
  8
3
100
AcDbCircle
 10
84.708439
 20
122.22545
 30
0.0
 40
0.997097
100
AcDbArc
 50
224.7243
 51
287.002294
  0
ARC
  5
15E9
100
AcDbEntity
  8
3
100
AcDbCircle
 10
104.291561
 20
122.22545
 30
0.0
 40
0.997097
100
AcDbArc
 50
252.997706
 51
315.2757
  0
ARC
  5
15EA
100
AcDbEntity
  8
3
100
AcDbCircle
 10
94.5
 20
100.5
 30
0.0
 40
23.5
100
AcDbArc
 50
116.539105
 51
183.460895
  0
CIRCLE
  5
15EB
100
AcDbEntity
  8
3
100
AcDbCircle
 10
94.5
 20
100.5
 30
0.0
 40
19.0
  0
ARC
  5
15EC
100
AcDbEntity
  8
3
100
AcDbCircle
 10
94.5
 20
100.5
 30
0.0
 40
22.84126
100
AcDbArc
 50
185.423111
 51
234.576889
  0
ARC
  5
15ED
100
AcDbEntity
  8
3
100
AcDbCircle
 10
70.789428
 20
98.117016
 30
0.0
 40
0.997097
100
AcDbArc
 50
12.997706
 51
75.2757
  0
ARC
  5
15EE
100
AcDbEntity
  8
3
100
AcDbCircle
 10
80.58099
 20
81.157535
 30
0.0
 40
0.997097
100
AcDbArc
 50
344.7243
 51
47.002294
  0
ARC
  5
15EF
100
AcDbEntity
  8
3
100
AcDbCircle
 10
108.419011
 20
81.157535
 30
0.0
 40
0.997097
100
AcDbArc
 50
132.997706
 51
195.2757
  0
ARC
  5
15F0
100
AcDbEntity
  8
3
100
AcDbCircle
 10
94.5
 20
100.5
 30
0.0
 40
22.84126
100
AcDbArc
 50
305.423111
 51
354.576889
  0
ARC
  5
15F1
100
AcDbEntity
  8
3
100
AcDbCircle
 10
118.210572
 20
98.117016
 30
0.0
 40
0.997097
100
AcDbArc
 50
104.7243
 51
167.002294
  0
ARC
  5
15F2
100
AcDbEntity
  8
3
100
AcDbCircle
 10
94.5
 20
100.5
 30
0.0
 40
22.84126
100
AcDbArc
 50
65.423111
 51
114.576889
  0
LINE
  5
15F3
100
AcDbEntity
  8
1
100
AcDbLine
 10
75.5
 20
175.5
 30
0.0
 11
112.0
 21
175.5
 31
0.0
  0
ARC
  5
15F4
100
AcDbEntity
  8
3
100
AcDbCircle
 10
77.983988
 20
172.442376
 30
0.0
 40
6.809688
100
AcDbArc
 50
13.222691
 51
77.136695
  0
ARC
  5
15F5
100
AcDbEntity
  8
3
100
AcDbCircle
 10
87.434826
 20
168.551259
 30
0.0
 40
2.453373
100
AcDbArc
 50
129.544279
 51
172.950328
  0
ARC
  5
15F6
100
AcDbEntity
  8
3
100
AcDbCircle
 10
109.073256
 20
174.006812
 30
0.0
 40
6.152085
100
AcDbArc
 50
114.725654
 51
175.401893
  0
ARC
  5
15F7
100
AcDbEntity
  8
3
100
AcDbCircle
 10
94.5
 20
175.5
 30
0.0
 40
8.5
100
AcDbArc
 50
270.0
 51
353.436168
  0
ARC
  5
15F8
100
AcDbEntity
  8
3
100
AcDbCircle
 10
101.565174
 20
168.551259
 30
0.0
 40
2.453373
100
AcDbArc
 50
7.049672
 51
79.79119
  0
LINE
  5
15F9
100
AcDbEntity
  8
3
100
AcDbLine
 10
245.748047
 20
66.29076
 30
0.0
 11
245.748047
 21
77.738548
 31
0.0
  0
LINE
  5
15FA
100
AcDbEntity
  8
3
100
AcDbLine
 10
260.5
 20
67.781734
 30
0.0
 11
260.5
 21
79.0
 31
0.0
  0
LINE
  5
15FB
100
AcDbEntity
  8
2
100
AcDbLine
 10
256.202184
 20
89.345566
 30
0.0
 11
255.957703
 21
77.371804
 31
0.0
  0
ARC
  5
15FC
100
AcDbEntity
  8
3
100
AcDbCircle
 10
251.023475
 20
96.21113
 30
0.0
 40
19.2111
100
AcDbArc
 50
243.000853
 51
299.556649
  0
LINE
  5
15FD
100
AcDbEntity
  8
3
100
AcDbLine
 10
240.5
 20
100.5
 30
0.0
 11
240.5
 21
20.5
 31
0.0
  0
LINE
  5
15FE
100
AcDbEntity
  8
1
100
AcDbLine
 10
250.5
 20
194.0
 30
0.0
 11
250.5
 21
0.5
 31
0.0
  0
LINE
  5
15FF
100
AcDbEntity
  8
1
100
AcDbLine
 10
264.5
 20
20.5
 30
0.0
 11
237.5
 21
20.5
 31
0.0
  0
ARC
  5
1600
100
AcDbEntity
  8
3
100
AcDbCircle
 10
250.5
 20
61.346739
 30
0.0
 40
3.750161
100
AcDbArc
 50
201.045852
 51
270.0
  0
ARC
  5
1601
100
AcDbEntity
  8
3
100
AcDbCircle
 10
250.5
 20
20.5
 30
0.0
 40
10.0
100
AcDbArc
 50
180.0
 51
0.0
  0
ARC
  5
1602
100
AcDbEntity
  8
3
100
AcDbCircle
 10
250.5
 20
23.5
 30
0.0
 40
7.0
100
AcDbArc
 50
0.0
 51
180.0
  0
ARC
  5
1603
100
AcDbEntity
  8
3
100
AcDbCircle
 10
238.416667
 20
25.583333
 30
0.0
 40
5.493683
100
AcDbArc
 50
292.285588
 51
337.714412
  0
ARC
  5
1604
100
AcDbEntity
  8
3
100
AcDbCircle
 10
260.7178
 20
66.0
 30
0.0
 40
14.972576
100
AcDbArc
 50
178.887273
 51
203.623988
  0
LINE
  5
1605
100
AcDbEntity
  8
3
100
AcDbLine
 10
260.5
 20
20.5
 30
0.0
 11
260.5
 21
67.781734
 31
0.0
  0
ARC
  5
1606
100
AcDbEntity
  8
3
100
AcDbCircle
 10
262.583333
 20
25.583333
 30
0.0
 40
5.493683
100
AcDbArc
 50
202.285588
 51
247.714412
  0
LINE
  5
1607
100
AcDbEntity
  8
3
100
AcDbLine
 10
255.231008
 20
66.269114
 30
0.0
 11
255.957703
 21
77.371804
 31
0.0
  0
ARC
  5
1608
100
AcDbEntity
  8
3
100
AcDbCircle
 10
240.2822
 20
66.0
 30
0.0
 40
14.972576
100
AcDbArc
 50
336.376012
 51
1.032754
  0
ARC
  5
1609
100
AcDbEntity
  8
3
100
AcDbCircle
 10
250.5
 20
61.346739
 30
0.0
 40
3.750161
100
AcDbArc
 50
270.0
 51
338.954148
  0
LINE
  5
160A
100
AcDbEntity
  8
3
100
AcDbLine
 10
245.689962
 20
166.5
 30
0.0
 11
245.75
 21
123.570663
 31
0.0
  0
LINE
  5
160B
100
AcDbEntity
  8
3
100
AcDbLine
 10
255.300929
 20
167.388888
 30
0.0
 11
256.25
 21
123.570663
 31
0.0
  0
LINE
  5
160C
100
AcDbEntity
  8
3
100
AcDbLine
 10
260.5
 20
180.5
 30
0.0
 11
260.5
 21
158.178387
 31
0.0
  0
LINE
  5
160D
100
AcDbEntity
  8
3
100
AcDbLine
 10
240.5
 20
100.5
 30
0.0
 11
240.5
 21
180.5
 31
0.0
  0
ARC
  5
160E
100
AcDbEntity
  8
2
100
AcDbCircle
 10
251.0
 20
85.268241
 30
0.0
 40
4.373405
100
AcDbArc
 50
203.848313
 51
336.151687
  0
ARC
  5
160F
100
AcDbEntity
  8
2
100
AcDbCircle
 10
251.0
 20
94.691553
 30
0.0
 40
4.389815
100
AcDbArc
 50
24.328281
 51
155.671719
  0
LINE
  5
1610
100
AcDbEntity
  8
1
100
AcDbLine
 10
218.694899
 20
100.5
 30
0.0
 11
282.549067
 21
100.5
 31
0.0
  0
LINE
  5
1611
100
AcDbEntity
  8
3
100
AcDbLine
 10
241.5
 20
119.5
 30
0.0
 11
242.302072
 21
121.906216
 31
0.0
  0
LINE
  5
1612
100
AcDbEntity
  8
3
100
AcDbLine
 10
241.5
 20
100.5
 30
0.0
 11
241.5
 21
81.5
 31
0.0
  0
LINE
  5
1613
100
AcDbEntity
  8
2
100
AcDbLine
 10
245.748047
 20
77.738548
 30
0.0
 11
245.748047
 21
88.843512
 31
0.0
  0
ARC
  5
1614
100
AcDbEntity
  8
2
100
AcDbCircle
 10
262.871013
 20
90.0
 30
0.0
 40
17.150483
100
AcDbArc
 50
157.728365
 51
202.271635
  0
LINE
  5
1615
100
AcDbEntity
  8
3
100
AcDbLine
 10
241.5
 20
81.5
 30
0.0
 11
242.302072
 21
79.093784
 31
0.0
  0
LINE
  5
1616
100
AcDbEntity
  8
3
100
AcDbLine
 10
241.5
 20
100.5
 30
0.0
 11
241.5
 21
119.5
 31
0.0
  0
ARC
  5
1617
100
AcDbEntity
  8
3
100
AcDbCircle
 10
252.907334
 20
95.928194
 30
0.0
 40
28.059387
100
AcDbArc
 50
104.812072
 51
112.207236
  0
LINE
  5
1618
100
AcDbEntity
  8
3
100
AcDbLine
 10
245.75
 20
123.570663
 30
0.0
 11
245.733967
 21
123.055155
 31
0.0
  0
LINE
  5
1619
100
AcDbEntity
  8
3
100
AcDbLine
 10
260.5
 20
119.5
 30
0.0
 11
260.5
 21
121.5
 31
0.0
  0
LINE
  5
161A
100
AcDbEntity
  8
3
100
AcDbLine
 10
276.5
 20
100.5
 30
0.0
 11
276.5
 21
84.5
 31
0.0
  0
LINE
  5
161B
100
AcDbEntity
  8
3
100
AcDbLine
 10
273.5
 20
81.5
 30
0.0
 11
260.5
 21
81.5
 31
0.0
  0
ARC
  5
161C
100
AcDbEntity
  8
2
100
AcDbCircle
 10
238.538693
 20
90.0
 30
0.0
 40
17.698154
100
AcDbArc
 50
338.452654
 51
21.547346
  0
LINE
  5
161D
100
AcDbEntity
  8
3
100
AcDbLine
 10
260.5
 20
81.5
 30
0.0
 11
260.5
 21
79.5
 31
0.0
  0
ARC
  5
161E
100
AcDbEntity
  8
3
100
AcDbCircle
 10
273.5
 20
84.5
 30
0.0
 40
3.0
100
AcDbArc
 50
270.0
 51
0.0
  0
LINE
  5
161F
100
AcDbEntity
  8
3
100
AcDbLine
 10
273.5
 20
119.5
 30
0.0
 11
260.5
 21
119.5
 31
0.0
  0
LINE
  5
1620
100
AcDbEntity
  8
3
100
AcDbLine
 10
276.5
 20
100.5
 30
0.0
 11
276.5
 21
116.5
 31
0.0
  0
ARC
  5
1621
100
AcDbEntity
  8
3
100
AcDbCircle
 10
273.5
 20
116.5
 30
0.0
 40
3.0
100
AcDbArc
 50
0.0
 51
90.0
  0
LINE
  5
1622
100
AcDbEntity
  8
3
100
AcDbLine
 10
260.5
 20
158.178387
 30
0.0
 11
260.5
 21
122.0
 31
0.0
  0
ARC
  5
1623
100
AcDbEntity
  8
3
100
AcDbCircle
 10
252.882809
 20
111.262703
 30
0.0
 40
12.760245
100
AcDbArc
 50
53.348439
 51
74.699505
  0
LINE
  5
1624
100
AcDbEntity
  8
1
100
AcDbLine
 10
236.0
 20
175.5
 30
0.0
 11
265.5
 21
175.5
 31
0.0
  0
ARC
  5
1625
100
AcDbEntity
  8
3
100
AcDbCircle
 10
250.5
 20
180.5
 30
0.0
 40
10.0
100
AcDbArc
 50
0.0
 51
180.0
  0
LINE
  5
1626
100
AcDbEntity
  8
3
100
AcDbLine
 10
240.5
 20
166.5
 30
0.0
 11
245.689962
 21
166.5
 31
0.0
  0
LINE
  5
1627
100
AcDbEntity
  8
3
100
AcDbLine
 10
257.5
 20
177.5
 30
0.0
 11
257.5
 21
168.0
 31
0.0
  0
LINE
  5
1628
100
AcDbEntity
  8
3
100
AcDbLine
 10
257.5
 20
168.0
 30
0.0
 11
255.300929
 21
167.388888
 31
0.0
  0
ARC
  5
1629
100
AcDbEntity
  8
3
100
AcDbCircle
 10
262.583333
 20
175.416667
 30
0.0
 40
5.493683
100
AcDbArc
 50
112.285588
 51
157.714412
  0
ENDBLK
  5
162B
100
AcDbEntity
  8
0
100
AcDbBlockEnd
  0
BLOCK
  5
1637
100
AcDbEntity
  8
0
100
AcDbBlockBegin
  2
*D16
 70
     1
 10
0.0
 20
0.0
 30
0.0
  3
*D16
  1

  0
LINE
  5
162D
100
AcDbEntity
  8
0
  6
BYBLOCK
 62
     0
100
AcDbLine
 10
280.428869
 20
241.263024
 30
0.0
 11
238.234255
 21
241.263024
 31
0.0
  0
LINE
  5
162E
100
AcDbEntity
  8
0
  6
BYBLOCK
 62
     0
100
AcDbLine
 10
280.428869
 20
61.263024
 30
0.0
 11
238.234255
 21
61.263024
 31
0.0
  0
LINE
  5
162F
100
AcDbEntity
  8
0
  6
BYBLOCK
 62
     0
100
AcDbLine
 10
239.234255
 20
239.263024
 30
0.0
 11
239.234255
 21
156.221005
 31
0.0
  0
LINE
  5
1630
100
AcDbEntity
  8
0
  6
BYBLOCK
 62
     0
100
AcDbLine
 10
239.234255
 20
63.263024
 30
0.0
 11
239.234255
 21
146.304338
 31
0.0
  0
SOLID
  5
1631
100
AcDbEntity
  8
0
  6
BYBLOCK
 62
     0
100
AcDbTrace
 10
238.900922
 20
239.263024
 30
0.0
 11
239.567589
 21
239.263024
 31
0.0
 12
239.234255
 22
241.263024
 32
0.0
 13
239.234255
 23
241.263024
 33
0.0
  0
SOLID
  5
1632
100
AcDbEntity
  8
0
  6
BYBLOCK
 62
     0
100
AcDbTrace
 10
238.900922
 20
63.263024
 30
0.0
 11
239.567589
 21
63.263024
 31
0.0
 12
239.234255
 22
61.263024
 32
0.0
 13
239.234255
 23
61.263024
 33
0.0
  0
MTEXT
  5
1633
100
AcDbEntity
  8
0
  6
BYBLOCK
 62
     0
100
AcDbMText
 10
239.234255
 20
151.262671
 30
0.0
 40
4.0
 41
0.0
 71
     5
 72
     5
  1
\A1;180
 11
0.0
 21
1.0
 31
0.0
  0
POINT
  5
1634
100
AcDbEntity
  8
DEFPOINTS
  6
BYBLOCK
 62
     0
100
AcDbPoint
 10
281.428869
 20
241.263024
 30
0.0
  0
POINT
  5
1635
100
AcDbEntity
  8
DEFPOINTS
  6
BYBLOCK
 62
     0
100
AcDbPoint
 10
281.428869
 20
61.263024
 30
0.0
  0
POINT
  5
1636
100
AcDbEntity
  8
DEFPOINTS
  6
BYBLOCK
 62
     0
100
AcDbPoint
 10
239.234255
 20
61.263024
 30
0.0
  0
ENDBLK
  5
1638
100
AcDbEntity
  8
0
100
AcDbBlockEnd
  0
BLOCK
  5
163C
100
AcDbEntity
  8
0
100
AcDbBlockBegin
  2
A$C50CE67E4
 70
     0
 10
0.0
 20
0.0
 30
0.0
  3
A$C50CE67E4
  1

  0
INSERT
  5
163A
100
AcDbEntity
  8
0
100
AcDbBlockReference
  2
A$C68E55F1B
 10
-0.513019
 20
0.0
 30
9.571049
  0
DIMENSION
  5
163B
100
AcDbEntity
  8
0
100
AcDbDimension
  2
*D16
 10
207.792368
 20
10.5
 30
9.571049
 11
207.792368
 21
100.499648
 31
9.571049
 12
-31.441887
 22
-50.763023
 32
9.571049
 70
   128
  3
STANDARD
100
AcDbAlignedDimension
 13
249.986981
 23
190.5
 33
9.571049
 14
249.986981
 24
10.5
 34
9.571049
 50
90.0
100
AcDbRotatedDimension
1001
ACAD
1000
DSTYLE
1002
{
1070
   140
1040
4.0
1070
    77
1070
     0
1070
    40
1040
1.0
1070
   141
1040
0.0
1070
    41
1040
2.0
1002
}
  0
ENDBLK
  5
163D
100
AcDbEntity
  8
0
100
AcDbBlockEnd
  0
BLOCK
  5
16E7
100
AcDbEntity
  8
0
100
AcDbBlockBegin
  2
A$C01E076B9
 70
     0
 10
0.0
 20
0.0
 30
0.0
  3
A$C01E076B9
  1

  0
ARC
  5
16DD
100
AcDbEntity
  8
3
100
AcDbCircle
 10
24.975
 20
32.461185
 30
0.0
 40
32.461535
100
AcDbArc
 50
229.748095
 51
297.571522
  0
ARC
  5
16DE
100
AcDbEntity
  8
3
100
AcDbCircle
 10
24.975
 20
-12.088815
 30
0.0
 40
32.461535
100
AcDbArc
 50
62.428478
 51
130.251905
  0
LINE
  5
16DF
100
AcDbEntity
  8
1
100
AcDbLine
 10
55.5
 20
10.186185
 30
0.0
 11
0.0
 21
10.186185
 31
0.0
  0
ARC
  5
16E0
100
AcDbEntity
  8
3
100
AcDbCircle
 10
5.333333
 20
10.186185
 30
0.0
 40
2.833333
100
AcDbArc
 50
118.072487
 51
241.927513
  0
LINE
  5
16E1
100
AcDbEntity
  8
3
100
AcDbLine
 10
58.5
 20
16.686185
 30
0.0
 11
62.0
 21
16.686185
 31
0.0
  0
LINE
  5
16E2
100
AcDbEntity
  8
3
100
AcDbLine
 10
64.5
 20
3.686185
 30
0.0
 11
58.5
 21
3.686185
 31
0.0
  0
LINE
  5
16E3
100
AcDbEntity
  8
1
100
AcDbLine
 10
58.5
 20
10.186185
 30
0.0
 11
84.0
 21
10.186185
 31
0.0
  0
LINE
  5
16E4
100
AcDbEntity
  8
3
100
AcDbLine
 10
58.5
 20
3.686185
 30
0.0
 11
58.5
 21
16.686185
 31
0.0
  0
ARC
  5
16E5
100
AcDbEntity
  8
3
100
AcDbCircle
 10
49.25
 20
-16.688815
 30
0.0
 40
22.376397
100
AcDbArc
 50
65.582534
 51
114.417466
  0
ARC
  5
16E6
100
AcDbEntity
  8
3
100
AcDbCircle
 10
49.25
 20
37.061185
 30
0.0
 40
22.376397
100
AcDbArc
 50
245.582534
 51
294.417466
  0
ENDBLK
  5
16E8
100
AcDbEntity
  8
0
100
AcDbBlockEnd
  0
BLOCK
  5
170C
100
AcDbEntity
  8
0
100
AcDbBlockBegin
  2
*D19
 70
     1
 10
0.0
 20
0.0
 30
0.0
  3
*D19
  1

  0
LINE
  5
1702
100
AcDbEntity
  8
0
  6
BYBLOCK
 62
     0
100
AcDbLine
 10
311.901347
 20
237.395786
 30
0.0
 11
311.901347
 21
254.224131
 31
0.0
  0
LINE
  5
1703
100
AcDbEntity
  8
0
  6
BYBLOCK
 62
     0
100
AcDbLine
 10
313.901347
 20
170.895786
 30
0.0
 11
313.901347
 21
254.224131
 31
0.0
  0
LINE
  5
1704
100
AcDbEntity
  8
0
  6
BYBLOCK
 62
     0
100
AcDbLine
 10
309.901347
 20
253.224131
 30
0.0
 11
307.901347
 21
253.224131
 31
0.0
  0
LINE
  5
1705
100
AcDbEntity
  8
0
  6
BYBLOCK
 62
     0
100
AcDbLine
 10
315.901347
 20
253.224131
 30
0.0
 11
320.012332
 21
253.224131
 31
0.0
  0
SOLID
  5
1706
100
AcDbEntity
  8
0
  6
BYBLOCK
 62
     0
100
AcDbTrace
 10
309.901347
 20
253.557464
 30
0.0
 11
309.901347
 21
252.890798
 31
0.0
 12
311.901347
 22
253.224131
 32
0.0
 13
311.901347
 23
253.224131
 33
0.0
  0
SOLID
  5
1707
100
AcDbEntity
  8
0
  6
BYBLOCK
 62
     0
100
AcDbTrace
 10
315.901347
 20
253.557464
 30
0.0
 11
315.901347
 21
252.890798
 31
0.0
 12
313.901347
 22
253.224131
 32
0.0
 13
313.901347
 23
253.224131
 33
0.0
  0
MTEXT
  5
1708
100
AcDbEntity
  8
0
  6
BYBLOCK
 62
     0
100
AcDbMText
 10
321.970665
 20
253.224131
 30
0.0
 40
4.0
 41
0.0
 71
     5
 72
     5
  1
\A1;2
  0
POINT
  5
1709
100
AcDbEntity
  8
DEFPOINTS
  6
BYBLOCK
 62
     0
100
AcDbPoint
 10
311.901347
 20
236.395786
 30
0.0
  0
POINT
  5
170A
100
AcDbEntity
  8
DEFPOINTS
  6
BYBLOCK
 62
     0
100
AcDbPoint
 10
313.901347
 20
169.895786
 30
0.0
  0
POINT
  5
170B
100
AcDbEntity
  8
DEFPOINTS
  6
BYBLOCK
 62
     0
100
AcDbPoint
 10
313.901347
 20
253.224131
 30
0.0
  0
ENDBLK
  5
170D
100
AcDbEntity
  8
0
100
AcDbBlockEnd
  0
BLOCK
  5
1719
100
AcDbEntity
  8
0
100
AcDbBlockBegin
  2
*D20
 70
     1
 10
0.0
 20
0.0
 30
0.0
  3
*D20
  1

  0
LINE
  5
170F
100
AcDbEntity
  8
0
  6
BYBLOCK
 62
     0
100
AcDbLine
 10
313.901347
 20
170.895786
 30
0.0
 11
313.901347
 21
244.356893
 31
0.0
  0
LINE
  5
1710
100
AcDbEntity
  8
0
  6
BYBLOCK
 62
     0
100
AcDbLine
 10
330.901347
 20
165.895786
 30
0.0
 11
330.901347
 21
244.356893
 31
0.0
  0
LINE
  5
1711
100
AcDbEntity
  8
0
  6
BYBLOCK
 62
     0
100
AcDbLine
 10
315.901347
 20
243.356893
 30
0.0
 11
319.777269
 21
243.356893
 31
0.0
  0
LINE
  5
1712
100
AcDbEntity
  8
0
  6
BYBLOCK
 62
     0
100
AcDbLine
 10
328.901347
 20
243.356893
 30
0.0
 11
326.360602
 21
243.356893
 31
0.0
  0
SOLID
  5
1713
100
AcDbEntity
  8
0
  6
BYBLOCK
 62
     0
100
AcDbTrace
 10
315.901347
 20
243.690227
 30
0.0
 11
315.901347
 21
243.02356
 31
0.0
 12
313.901347
 22
243.356893
 32
0.0
 13
313.901347
 23
243.356893
 33
0.0
  0
SOLID
  5
1714
100
AcDbEntity
  8
0
  6
BYBLOCK
 62
     0
100
AcDbTrace
 10
328.901347
 20
243.690227
 30
0.0
 11
328.901347
 21
243.02356
 31
0.0
 12
330.901347
 22
243.356893
 32
0.0
 13
330.901347
 23
243.356893
 33
0.0
  0
MTEXT
  5
1715
100
AcDbEntity
  8
0
  6
BYBLOCK
 62
     0
100
AcDbMText
 10
323.068936
 20
243.356893
 30
0.0
 40
4.0
 41
0.0
 71
     5
 72
     5
  1
\A1;17
  0
POINT
  5
1716
100
AcDbEntity
  8
DEFPOINTS
  6
BYBLOCK
 62
     0
100
AcDbPoint
 10
313.901347
 20
169.895786
 30
0.0
  0
POINT
  5
1717
100
AcDbEntity
  8
DEFPOINTS
  6
BYBLOCK
 62
     0
100
AcDbPoint
 10
330.901347
 20
164.895786
 30
0.0
  0
POINT
  5
1718
100
AcDbEntity
  8
DEFPOINTS
  6
BYBLOCK
 62
     0
100
AcDbPoint
 10
330.901347
 20
243.356893
 30
0.0
  0
ENDBLK
  5
171A
100
AcDbEntity
  8
0
100
AcDbBlockEnd
  0
BLOCK
  5
1726
100
AcDbEntity
  8
0
100
AcDbBlockBegin
  2
*D21
 70
     1
 10
0.0
 20
0.0
 30
0.0
  3
*D21
  1

  0
LINE
  5
171C
100
AcDbEntity
  8
0
  6
BYBLOCK
 62
     0
100
AcDbLine
 10
299.401347
 20
247.895786
 30
0.0
 11
253.243958
 21
247.895786
 31
0.0
  0
LINE
  5
171D
100
AcDbEntity
  8
0
  6
BYBLOCK
 62
     0
100
AcDbLine
 10
299.401347
 20
47.895786
 30
0.0
 11
253.243958
 21
47.895786
 31
0.0
  0
LINE
  5
171E
100
AcDbEntity
  8
0
  6
BYBLOCK
 62
     0
100
AcDbLine
 10
254.243958
 20
245.895786
 30
0.0
 11
254.243958
 21
152.534352
 31
0.0
  0
LINE
  5
171F
100
AcDbEntity
  8
0
  6
BYBLOCK
 62
     0
100
AcDbLine
 10
254.243958
 20
49.895786
 30
0.0
 11
254.243958
 21
141.951018
 31
0.0
  0
SOLID
  5
1720
100
AcDbEntity
  8
0
  6
BYBLOCK
 62
     0
100
AcDbTrace
 10
253.910625
 20
245.895786
 30
0.0
 11
254.577291
 21
245.895786
 31
0.0
 12
254.243958
 22
247.895786
 32
0.0
 13
254.243958
 23
247.895786
 33
0.0
  0
SOLID
  5
1721
100
AcDbEntity
  8
0
  6
BYBLOCK
 62
     0
100
AcDbTrace
 10
253.910625
 20
49.895786
 30
0.0
 11
254.577291
 21
49.895786
 31
0.0
 12
254.243958
 22
47.895786
 32
0.0
 13
254.243958
 23
47.895786
 33
0.0
  0
MTEXT
  5
1722
100
AcDbEntity
  8
0
  6
BYBLOCK
 62
     0
100
AcDbMText
 10
254.243958
 20
147.242685
 30
0.0
 40
4.0
 41
0.0
 71
     5
 72
     5
  1
\A1;200
 11
0.0
 21
1.0
 31
0.0
  0
POINT
  5
1723
100
AcDbEntity
  8
DEFPOINTS
  6
BYBLOCK
 62
     0
100
AcDbPoint
 10
300.401347
 20
247.895786
 30
0.0
  0
POINT
  5
1724
100
AcDbEntity
  8
DEFPOINTS
  6
BYBLOCK
 62
     0
100
AcDbPoint
 10
300.401347
 20
47.895786
 30
0.0
  0
POINT
  5
1725
100
AcDbEntity
  8
DEFPOINTS
  6
BYBLOCK
 62
     0
100
AcDbPoint
 10
254.243958
 20
47.895786
 30
0.0
  0
ENDBLK
  5
1727
100
AcDbEntity
  8
0
100
AcDbBlockEnd
  0
BLOCK
  5
1733
100
AcDbEntity
  8
0
100
AcDbBlockBegin
  2
*D22
 70
     1
 10
0.0
 20
0.0
 30
0.0
  3
*D22
  1

  0
LINE
  5
1729
100
AcDbEntity
  8
0
  6
BYBLOCK
 62
     0
100
AcDbLine
 10
290.901347
 20
128.895786
 30
0.0
 11
290.901347
 21
41.723052
 31
0.0
  0
LINE
  5
172A
100
AcDbEntity
  8
0
  6
BYBLOCK
 62
     0
100
AcDbLine
 10
330.901347
 20
129.895786
 30
0.0
 11
330.901347
 21
41.723052
 31
0.0
  0
LINE
  5
172B
100
AcDbEntity
  8
0
  6
BYBLOCK
 62
     0
100
AcDbLine
 10
292.901347
 20
42.723052
 30
0.0
 11
311.389949
 21
42.723052
 31
0.0
  0
LINE
  5
172C
100
AcDbEntity
  8
0
  6
BYBLOCK
 62
     0
100
AcDbLine
 10
328.901347
 20
42.723052
 30
0.0
 11
318.639949
 21
42.723052
 31
0.0
  0
SOLID
  5
172D
100
AcDbEntity
  8
0
  6
BYBLOCK
 62
     0
100
AcDbTrace
 10
292.901347
 20
43.056385
 30
0.0
 11
292.901347
 21
42.389718
 31
0.0
 12
290.901347
 22
42.723052
 32
0.0
 13
290.901347
 23
42.723052
 33
0.0
  0
SOLID
  5
172E
100
AcDbEntity
  8
0
  6
BYBLOCK
 62
     0
100
AcDbTrace
 10
328.901347
 20
43.056385
 30
0.0
 11
328.901347
 21
42.389718
 31
0.0
 12
330.901347
 22
42.723052
 32
0.0
 13
330.901347
 23
42.723052
 33
0.0
  0
MTEXT
  5
172F
100
AcDbEntity
  8
0
  6
BYBLOCK
 62
     0
100
AcDbMText
 10
315.014949
 20
42.723052
 30
0.0
 40
4.0
 41
0.0
 71
     5
 72
     5
  1
\A1;40
  0
POINT
  5
1730
100
AcDbEntity
  8
DEFPOINTS
  6
BYBLOCK
 62
     0
100
AcDbPoint
 10
290.901347
 20
129.895786
 30
0.0
  0
POINT
  5
1731
100
AcDbEntity
  8
DEFPOINTS
  6
BYBLOCK
 62
     0
100
AcDbPoint
 10
330.901347
 20
130.895786
 30
0.0
  0
POINT
  5
1732
100
AcDbEntity
  8
DEFPOINTS
  6
BYBLOCK
 62
     0
100
AcDbPoint
 10
330.901347
 20
42.723052
 30
0.0
  0
ENDBLK
  5
1734
100
AcDbEntity
  8
0
100
AcDbBlockEnd
  0
BLOCK
  5
17AA
100
AcDbEntity
  8
0
100
AcDbBlockBegin
  2
A$C22617621
 70
     0
 10
0.0
 20
0.0
 30
0.0
  3
A$C22617621
  1

  0
LINE
  5
1736
100
AcDbEntity
  8
1
100
AcDbLine
 10
198.110796
 20
59.120725
 30
10.334147
 11
105.446078
 21
112.620725
 31
10.334147
  0
ARC
  5
1737
100
AcDbEntity
  8
4
100
AcDbCircle
 10
105.446078
 20
112.620725
 30
10.334147
 40
88.5
100
AcDbArc
 50
270.0
 51
90.0
  0
CIRCLE
  5
1738
100
AcDbEntity
  8
3
100
AcDbCircle
 10
105.446078
 20
112.620725
 30
10.334147
 40
100.0
  0
LINE
  5
1739
100
AcDbEntity
  8
1
100
AcDbLine
 10
105.446078
 20
112.620725
 30
10.334147
 11
212.946078
 21
112.620725
 31
10.334147
  0
ARC
  5
173A
100
AcDbEntity
  8
3
100
AcDbCircle
 10
105.446078
 20
112.620725
 30
10.334147
 40
77.0
100
AcDbArc
 50
337.837846
 51
82.162154
  0
ARC
  5
173B
100
AcDbEntity
  8
3
100
AcDbCircle
 10
105.446078
 20
112.620725
 30
10.334147
 40
18.0
100
AcDbArc
 50
90.0
 51
270.0
  0
ARC
  5
173C
100
AcDbEntity
  8
3
100
AcDbCircle
 10
105.446078
 20
112.620725
 30
10.334147
 40
88.5
100
AcDbArc
 50
100.415834
 51
270.0
  0
LINE
  5
173D
100
AcDbEntity
  8
1
100
AcDbLine
 10
105.446078
 20
112.620725
 30
10.334147
 11
105.446078
 21
5.620725
 31
10.334147
  0
ARC
  5
173E
100
AcDbEntity
  8
3
100
AcDbCircle
 10
105.446078
 20
112.620725
 30
10.334147
 40
21.0
100
AcDbArc
 50
90.0
 51
270.0
  0
LINE
  5
173F
100
AcDbEntity
  8
3
100
AcDbLine
 10
82.453433
 20
113.202321
 30
10.334147
 11
34.119114
 21
83.564438
 31
10.334147
  0
LINE
  5
1740
100
AcDbEntity
  8
1
100
AcDbLine
 10
12.78136
 20
59.120725
 30
10.334147
 11
105.446078
 21
112.620725
 31
10.334147
  0
ARC
  5
1741
100
AcDbEntity
  8
3
100
AcDbCircle
 10
106.893923
 20
113.456638
 30
10.334147
 40
23.86772
100
AcDbArc
 50
185.23005
 51
234.76995
  0
ARC
  5
1742
100
AcDbEntity
  8
3
100
AcDbCircle
 10
103.998234
 20
113.456638
 30
10.334147
 40
23.86772
100
AcDbArc
 50
305.23005
 51
354.76995
  0
ARC
  5
1743
100
AcDbEntity
  8
4
100
AcDbCircle
 10
105.446078
 20
112.620725
 30
10.334147
 40
17.0
100
AcDbArc
 50
270.0
 51
90.0
  0
ARC
  5
1744
100
AcDbEntity
  8
4
100
AcDbCircle
 10
105.446078
 20
112.620725
 30
10.334147
 40
20.0
100
AcDbArc
 50
270.0
 51
90.0
  0
ARC
  5
1745
100
AcDbEntity
  8
4
100
AcDbCircle
 10
105.446078
 20
112.620725
 30
10.334147
 40
21.75522
100
AcDbArc
 50
270.0
 51
90.0
  0
LINE
  5
1746
100
AcDbEntity
  8
3
100
AcDbLine
 10
128.438724
 20
113.202321
 30
10.334147
 11
176.773042
 21
83.564438
 31
10.334147
  0
ARC
  5
1747
100
AcDbEntity
  8
3
100
AcDbCircle
 10
105.446078
 20
112.620725
 30
10.334147
 40
77.0
100
AcDbArc
 50
97.837846
 51
202.162154
  0
LINE
  5
1748
100
AcDbEntity
  8
3
100
AcDbLine
 10
94.453433
 20
92.417711
 30
10.334147
 11
44.619114
 21
65.377905
 31
10.334147
  0
ARC
  5
1749
100
AcDbEntity
  8
3
100
AcDbCircle
 10
105.446078
 20
112.620725
 30
10.334147
 40
77.0
100
AcDbArc
 50
217.837846
 51
322.162154
  0
TEXT
  5
174A
100
AcDbEntity
  8
0
100
AcDbText
 10
26.596408
 20
0.0
 30
10.334147
 40
5.0
  1
各角はバリ無きこと。
 41
0.7
  7
BIGFONT
100
AcDbText
  0
ARC
  5
174B
100
AcDbEntity
  8
3
100
AcDbCircle
 10
85.998269
 20
101.392527
 30
10.334147
 40
56.061976
100
AcDbArc
 50
200.503
 51
219.497
  0
ARC
  5
174C
100
AcDbEntity
  8
3
100
AcDbCircle
 10
43.948113
 20
66.977804
 30
10.334147
 40
1.734913
100
AcDbArc
 50
225.754429
 51
292.753289
  0
ARC
  5
174D
100
AcDbEntity
  8
3
100
AcDbCircle
 10
35.169167
 20
82.183384
 30
10.334147
 40
1.734913
100
AcDbArc
 50
127.246711
 51
194.245571
  0
LINE
  5
174E
100
AcDbEntity
  8
3
100
AcDbLine
 10
116.438724
 20
92.417711
 30
10.334147
 11
166.273042
 21
65.377905
 31
10.334147
  0
ARC
  5
174F
100
AcDbEntity
  8
3
100
AcDbCircle
 10
105.446078
 20
112.620725
 30
10.334147
 40
23.0
100
AcDbArc
 50
241.448981
 51
298.551019
  0
ARC
  5
1750
100
AcDbEntity
  8
3
100
AcDbCircle
 10
92.559059
 20
92.130041
 30
10.334147
 40
1.916092
100
AcDbArc
 50
8.634684
 51
72.802888
  0
ARC
  5
1751
100
AcDbEntity
  8
3
100
AcDbCircle
 10
118.333098
 20
92.130041
 30
10.334147
 40
1.916092
100
AcDbArc
 50
107.197112
 51
171.365316
  0
TEXT
  5
1752
100
AcDbEntity
  8
3
100
AcDbText
 10
138.740307
 20
90.589636
 30
10.334147
 40
5.0
  1
S/SN-200
 50
330.0
 41
0.8
  7
BIGFONT
100
AcDbText
  0
ARC
  5
1753
100
AcDbEntity
  8
3
100
AcDbCircle
 10
124.893887
 20
101.392527
 30
10.334147
 40
56.061976
100
AcDbArc
 50
320.503
 51
339.497
  0
ARC
  5
1754
100
AcDbEntity
  8
3
100
AcDbCircle
 10
166.944044
 20
66.977804
 30
10.334147
 40
1.734913
100
AcDbArc
 50
247.246711
 51
314.245571
  0
ARC
  5
1755
100
AcDbEntity
  8
3
100
AcDbCircle
 10
175.722989
 20
82.183384
 30
10.334147
 40
1.734913
100
AcDbArc
 50
345.754429
 51
52.753289
  0
LINE
  5
1756
100
AcDbEntity
  8
1
100
AcDbLine
 10
105.446078
 20
112.620725
 30
10.334147
 11
-0.553922
 21
112.620725
 31
10.334147
  0
LINE
  5
1757
100
AcDbEntity
  8
1
100
AcDbLine
 10
105.446078
 20
219.620725
 30
10.334147
 11
105.446078
 21
112.620725
 31
10.334147
  0
ARC
  5
1758
100
AcDbEntity
  8
3
100
AcDbCircle
 10
105.446078
 20
196.620725
 30
10.334147
 40
11.0
100
AcDbArc
 50
185.215909
 51
270.0
  0
LINE
  5
1759
100
AcDbEntity
  8
3
100
AcDbLine
 10
117.446078
 20
132.242141
 30
10.334147
 11
115.946078
 21
188.919831
 31
10.334147
  0
LINE
  5
175A
100
AcDbEntity
  8
3
100
AcDbLine
 10
93.446078
 20
132.242141
 30
10.334147
 11
94.946078
 21
188.919831
 31
10.334147
  0
ARC
  5
175B
100
AcDbEntity
  8
3
100
AcDbCircle
 10
105.446078
 20
112.620725
 30
10.334147
 40
23.0
100
AcDbArc
 50
1.448981
 51
58.551019
  0
ARC
  5
175C
100
AcDbEntity
  8
3
100
AcDbCircle
 10
105.446078
 20
112.620725
 30
10.334147
 40
23.0
100
AcDbArc
 50
121.448981
 51
178.551019
  0
ARC
  5
175D
100
AcDbEntity
  8
3
100
AcDbCircle
 10
81.257116
 20
111.70558
 30
10.334147
 40
1.916092
100
AcDbArc
 50
347.197112
 51
51.365316
  0
ARC
  5
175E
100
AcDbEntity
  8
3
100
AcDbCircle
 10
105.446078
 20
110.948898
 30
10.334147
 40
23.86772
100
AcDbArc
 50
65.23005
 51
114.76995
  0
ARC
  5
175F
100
AcDbEntity
  8
3
100
AcDbCircle
 10
94.144135
 20
134.026553
 30
10.334147
 40
1.916092
100
AcDbArc
 50
248.634684
 51
312.802888
  0
ARC
  5
1760
100
AcDbEntity
  8
3
100
AcDbCircle
 10
116.748021
 20
134.026553
 30
10.334147
 40
1.916092
100
AcDbArc
 50
227.197112
 51
291.365316
  0
ARC
  5
1761
100
AcDbEntity
  8
3
100
AcDbCircle
 10
129.63504
 20
111.70558
 30
10.334147
 40
1.916092
100
AcDbArc
 50
128.634684
 51
192.802888
  0
LINE
  5
1762
100
AcDbEntity
  8
1
100
AcDbLine
 10
86.946078
 20
195.620725
 30
10.334147
 11
105.446078
 21
195.620725
 31
10.334147
  0
LINE
  5
1763
100
AcDbEntity
  8
1
100
AcDbLine
 10
99.446078
 20
196.620725
 30
10.334147
 11
105.446078
 21
196.620725
 31
10.334147
  0
ARC
  5
1764
100
AcDbEntity
  8
3
100
AcDbCircle
 10
96.667133
 20
188.700985
 30
10.334147
 40
1.734913
100
AcDbArc
 50
105.754429
 51
172.753289
  0
ARC
  5
1765
100
AcDbEntity
  8
3
100
AcDbCircle
 10
105.446078
 20
135.07712
 30
10.334147
 40
56.061976
100
AcDbArc
 50
99.312809
 51
99.497
  0
ARC
  5
1766
100
AcDbEntity
  8
3
100
AcDbCircle
 10
88.477462
 20
193.282949
 30
10.334147
 40
6.452548
100
AcDbArc
 50
21.241681
 51
81.366483
  0
ARC
  5
1767
100
AcDbEntity
  8
4
100
AcDbCircle
 10
105.446078
 20
196.620725
 30
10.334147
 40
9.0
100
AcDbArc
 50
270.0
 51
0.0
  0
ARC
  5
1768
100
AcDbEntity
  8
3
100
AcDbCircle
 10
114.225024
 20
188.700985
 30
10.334147
 40
1.734913
100
AcDbArc
 50
7.246711
 51
74.245571
  0
ARC
  5
1769
100
AcDbEntity
  8
3
100
AcDbCircle
 10
105.446078
 20
135.07712
 30
10.334147
 40
56.061976
100
AcDbArc
 50
80.503
 51
83.033027
  0
LINE
  5
176A
100
AcDbEntity
  8
1
100
AcDbLine
 10
105.446078
 20
196.620725
 30
10.334147
 11
112.571904
 21
196.620725
 31
10.334147
  0
ARC
  5
176B
100
AcDbEntity
  8
4
100
AcDbCircle
 10
118.362901
 20
196.224813
 30
10.334147
 40
3.936781
100
AcDbArc
 50
88.789346
 51
174.228164
  0
DIMENSION
  5
176C
100
AcDbEntity
  8
0
100
AcDbDimension
  2
*D21
 10
237.038689
 20
12.620725
 30
10.334147
 11
237.038689
 21
111.967624
 31
10.334147
 12
-17.205269
 22
-35.275061
 32
10.334147
 70
   128
  3
STANDARD
100
AcDbAlignedDimension
 13
283.196078
 23
212.620725
 33
10.334147
 14
283.196078
 24
12.620725
 34
10.334147
 50
90.0
100
AcDbRotatedDimension
1001
ACAD
1000
DSTYLE
1002
{
1070
   140
1040
4.0
1070
    77
1070
     0
1070
    40
1040
1.0
1070
   141
1040
0.0
1070
    41
1040
2.0
1002
}
  0
ARC
  5
176D
100
AcDbEntity
  8
2
100
AcDbCircle
 10
253.521317
 20
100.884755
 30
10.334147
 40
35.680466
100
AcDbArc
 50
353.136406
 51
9.657956
  0
ARC
  5
176E
100
AcDbEntity
  8
2
100
AcDbCircle
 10
299.289564
 20
102.370725
 30
10.334147
 40
22.109752
100
AcDbArc
 50
167.594016
 51
192.405984
  0
LINE
  5
176F
100
AcDbEntity
  8
1
100
AcDbLine
 10
283.196078
 20
213.801706
 30
10.334147
 11
283.196078
 21
5.620725
 31
10.334147
  0
LINE
  5
1770
100
AcDbEntity
  8
3
100
AcDbLine
 10
271.696078
 20
112.620725
 30
10.334147
 11
271.696078
 21
24.120725
 31
10.334147
  0
LINE
  5
1771
100
AcDbEntity
  8
1
100
AcDbLine
 10
283.196078
 20
135.954058
 30
10.334147
 11
283.196078
 21
95.620725
 31
10.334147
  0
LINE
  5
1772
100
AcDbEntity
  8
3
100
AcDbLine
 10
296.696078
 20
112.620725
 30
10.334147
 11
296.696078
 21
90.620725
 31
10.334147
  0
LINE
  5
1773
100
AcDbEntity
  8
3
100
AcDbLine
 10
273.696078
 20
112.620725
 30
10.334147
 11
273.696078
 21
94.620725
 31
10.334147
  0
LINE
  5
1774
100
AcDbEntity
  8
3
100
AcDbLine
 10
313.696078
 20
112.620725
 30
10.334147
 11
313.696078
 21
95.620725
 31
10.334147
  0
LINE
  5
1775
100
AcDbEntity
  8
2
100
AcDbLine
 10
289.178366
 20
101.194419
 30
10.334147
 11
288.882732
 21
89.152236
 31
10.334147
  0
LINE
  5
1776
100
AcDbEntity
  8
2
100
AcDbLine
 10
277.167887
 20
102.117926
 30
10.334147
 11
277.467546
 21
90.901944
 31
10.334147
  0
DIMENSION
  5
1777
100
AcDbEntity
  8
0
100
AcDbDimension
  2
*D22
 10
313.696078
 20
7.44799
 30
10.334147
 11
297.80968
 21
7.44799
 31
10.334147
 12
-17.205269
 22
-35.275061
 32
10.334147
 70
   128
  3
STANDARD
100
AcDbAlignedDimension
 13
273.696078
 23
94.620725
 33
10.334147
 14
313.696078
 24
95.620725
 34
10.334147
100
AcDbRotatedDimension
1001
ACAD
1000
DSTYLE
1002
{
1070
   140
1040
4.0
1070
    77
1070
     0
1070
    40
1040
1.0
1070
   141
1040
0.0
1070
    41
1040
2.0
1002
}
  0
LINE
  5
1778
100
AcDbEntity
  8
3
100
AcDbLine
 10
310.696078
 20
92.620725
 30
10.334147
 11
296.696078
 21
92.620725
 31
10.334147
  0
ARC
  5
1779
100
AcDbEntity
  8
3
100
AcDbCircle
 10
283.196078
 20
24.120725
 30
10.334147
 40
11.5
100
AcDbArc
 50
180.0
 51
0.0
  0
LINE
  5
177A
100
AcDbEntity
  8
3
100
AcDbLine
 10
294.696078
 20
89.340701
 30
10.334147
 11
294.696078
 21
24.120725
 31
10.334147
  0
LINE
  5
177B
100
AcDbEntity
  8
1
100
AcDbLine
 10
294.696078
 20
24.120725
 30
10.334147
 11
268.982916
 21
24.120725
 31
10.334147
  0
ARC
  5
177C
100
AcDbEntity
  8
3
100
AcDbCircle
 10
268.470799
 20
30.891808
 30
10.334147
 40
7.5
100
AcDbArc
 50
295.46992
 51
352.009681
  0
ARC
  5
177D
100
AcDbEntity
  8
3
100
AcDbCircle
 10
283.196078
 20
28.120725
 30
10.334147
 40
7.5
100
AcDbArc
 50
7.767988
 51
172.009681
  0
LINE
  5
177E
100
AcDbEntity
  8
1
100
AcDbLine
 10
278.696078
 20
28.120725
 30
10.334147
 11
287.696078
 21
28.120725
 31
10.334147
  0
ARC
  5
177F
100
AcDbEntity
  8
3
100
AcDbCircle
 10
297.921357
 20
30.891808
 30
10.334147
 40
7.5
100
AcDbArc
 50
187.990319
 51
244.53008
  0
LINE
  5
1780
100
AcDbEntity
  8
1
100
AcDbLine
 10
294.696078
 20
24.120725
 30
10.334147
 11
297.133866
 21
24.120725
 31
10.334147
  0
LINE
  5
1781
100
AcDbEntity
  8
3
100
AcDbLine
 10
288.506451
 20
73.825016
 30
10.334147
 11
288.882732
 21
89.152236
 31
10.334147
  0
LINE
  5
1782
100
AcDbEntity
  8
3
100
AcDbLine
 10
277.923792
 20
73.825016
 30
10.334147
 11
277.467546
 21
90.901944
 31
10.334147
  0
ARC
  5
1783
100
AcDbEntity
  8
3
100
AcDbCircle
 10
268.1331
 20
72.806794
 30
10.334147
 40
20.39878
100
AcDbArc
 50
346.017787
 51
2.861154
  0
ARC
  5
1784
100
AcDbEntity
  8
3
100
AcDbCircle
 10
283.283176
 20
69.208139
 30
10.334147
 40
4.831019
100
AcDbArc
 50
189.00624
 51
344.018481
  0
ARC
  5
1785
100
AcDbEntity
  8
3
100
AcDbCircle
 10
298.074884
 20
73.504358
 30
10.334147
 40
20.205074
100
AcDbArc
 50
176.768797
 51
194.481052
  0
ARC
  5
1786
100
AcDbEntity
  8
3
100
AcDbCircle
 10
277.859072
 20
75.21479
 30
10.334147
 40
10.737698
100
AcDbArc
 50
352.563375
 51
4.623982
  0
ARC
  5
1787
100
AcDbEntity
  8
3
100
AcDbCircle
 10
287.482014
 20
118.125376
 30
10.334147
 40
29.006979
100
AcDbArc
 50
246.026517
 51
288.520861
  0
ARC
  5
1788
100
AcDbEntity
  8
2
100
AcDbCircle
 10
283.321078
 20
98.495725
 30
10.334147
 40
5.929271
100
AcDbArc
 50
304.695154
 51
341.565051
  0
LINE
  5
1789
100
AcDbEntity
  8
1
100
AcDbLine
 10
283.196078
 20
95.620725
 30
10.334147
 11
283.196078
 21
88.370725
 31
10.334147
  0
ARC
  5
178A
100
AcDbEntity
  8
2
100
AcDbCircle
 10
283.446078
 20
97.383259
 30
10.334147
 40
4.971838
100
AcDbArc
 50
229.180224
 51
310.819776
  0
LINE
  5
178B
100
AcDbEntity
  8
3
100
AcDbLine
 10
273.696078
 20
94.620725
 30
10.334147
 11
275.696078
 21
91.620725
 31
10.334147
  0
ARC
  5
178C
100
AcDbEntity
  8
2
100
AcDbCircle
 10
285.638386
 20
99.803417
 30
10.334147
 40
8.236771
100
AcDbArc
 50
195.366578
 51
228.644189
  0
ARC
  5
178D
100
AcDbEntity
  8
3
100
AcDbCircle
 10
310.696078
 20
95.620725
 30
10.334147
 40
3.0
100
AcDbArc
 50
270.0
 51
0.0
  0
DIMENSION
  5
178E
100
AcDbEntity
  8
0
100
AcDbDimension
  2
*D20
 10
313.696078
 20
208.081832
 30
10.334147
 11
305.863667
 21
208.081832
 31
10.334147
 12
-17.205269
 22
-35.275061
 32
10.334147
 70
   128
  3
STANDARD
100
AcDbAlignedDimension
 13
296.696078
 23
134.620725
 33
10.334147
 14
313.696078
 24
129.620725
 34
10.334147
100
AcDbRotatedDimension
1001
ACAD
1000
DSTYLE
1002
{
1070
   140
1040
4.0
1070
    77
1070
     0
1070
    40
1040
1.0
1070
   141
1040
0.0
1070
    41
1040
2.0
1002
}
  0
DIMENSION
  5
178F
100
AcDbEntity
  8
0
100
AcDbDimension
  2
*D19
 10
296.696078
 20
217.94907
 30
10.334147
 11
304.765396
 21
217.94907
 31
10.334147
 12
-17.205269
 22
-35.275061
 32
10.334147
 70
   128
  3
STANDARD
100
AcDbAlignedDimension
 13
294.696078
 23
201.120725
 33
10.334147
 14
296.696078
 24
134.620725
 34
10.334147
100
AcDbRotatedDimension
1001
ACAD
1000
DSTYLE
1002
{
1070
   140
1040
4.0
1070
    77
1070
     0
1070
    40
1040
1.0
1070
   141
1040
0.0
1070
    41
1040
2.0
1002
}
  0
LINE
  5
1790
100
AcDbEntity
  8
3
100
AcDbLine
 10
310.696078
 20
132.620725
 30
10.334147
 11
296.696078
 21
132.620725
 31
10.334147
  0
LINE
  5
1791
100
AcDbEntity
  8
1
100
AcDbLine
 10
265.196078
 20
112.620725
 30
10.334147
 11
329.696078
 21
112.620725
 31
10.334147
  0
LINE
  5
1792
100
AcDbEntity
  8
3
100
AcDbLine
 10
271.696078
 20
112.620725
 30
10.334147
 11
271.696078
 21
201.120725
 31
10.334147
  0
LINE
  5
1793
100
AcDbEntity
  8
3
100
AcDbLine
 10
294.696078
 20
201.120725
 30
10.334147
 11
294.696078
 21
164.65994
 31
10.334147
  0
LINE
  5
1794
100
AcDbEntity
  8
3
100
AcDbLine
 10
288.507285
 20
186.490818
 30
10.334147
 11
289.196078
 21
136.620725
 31
10.334147
  0
LINE
  5
1795
100
AcDbEntity
  8
3
100
AcDbLine
 10
277.872466
 20
185.415622
 30
10.334147
 11
277.196078
 21
134.816618
 31
10.334147
  0
LINE
  5
1796
100
AcDbEntity
  8
3
100
AcDbLine
 10
294.696078
 20
164.65994
 30
10.334147
 11
294.696078
 21
135.16536
 31
10.334147
  0
LINE
  5
1797
100
AcDbEntity
  8
3
100
AcDbLine
 10
296.696078
 20
112.620725
 30
10.334147
 11
296.696078
 21
134.620725
 31
10.334147
  0
LINE
  5
1798
100
AcDbEntity
  8
3
100
AcDbLine
 10
273.696078
 20
112.620725
 30
10.334147
 11
273.696078
 21
130.620725
 31
10.334147
  0
ARC
  5
1799
100
AcDbEntity
  8
2
100
AcDbCircle
 10
281.746078
 20
106.195725
 30
10.334147
 40
6.982702
100
AcDbArc
 50
5.5473
 51
44.854948
  0
ARC
  5
179A
100
AcDbEntity
  8
2
100
AcDbCircle
 10
286.212383
 20
105.332681
 30
10.334147
 40
8.701985
100
AcDbArc
 50
136.062786
 51
168.142672
  0
ARC
  5
179B
100
AcDbEntity
  8
2
100
AcDbCircle
 10
283.1927
 20
107.779508
 30
10.334147
 40
4.841217
100
AcDbArc
 50
43.642802
 51
132.115005
  0
LINE
  5
179C
100
AcDbEntity
  8
3
100
AcDbLine
 10
273.696078
 20
130.620725
 30
10.334147
 11
275.696078
 21
133.620725
 31
10.334147
  0
ARC
  5
179D
100
AcDbEntity
  8
3
100
AcDbCircle
 10
282.226576
 20
126.968238
 30
10.334147
 40
9.322176
100
AcDbArc
 50
122.658247
 51
134.469829
  0
LINE
  5
179E
100
AcDbEntity
  8
3
100
AcDbLine
 10
277.196078
 20
134.816618
 30
10.334147
 11
277.196078
 21
135.102353
 31
10.334147
  0
ARC
  5
179F
100
AcDbEntity
  8
3
100
AcDbCircle
 10
286.612745
 20
101.537391
 30
10.334147
 40
34.585843
100
AcDbArc
 50
73.049518
 51
85.716395
  0
LINE
  5
17A0
100
AcDbEntity
  8
3
100
AcDbLine
 10
289.196078
 20
136.026621
 30
10.334147
 11
289.196078
 21
136.620725
 31
10.334147
  0
LINE
  5
17A1
100
AcDbEntity
  8
3
100
AcDbLine
 10
271.696078
 20
185.620725
 30
10.334147
 11
277.872466
 21
185.415622
 31
10.334147
  0
LINE
  5
17A2
100
AcDbEntity
  8
1
100
AcDbLine
 10
283.196078
 20
201.120725
 30
10.334147
 11
268.440512
 21
201.120725
 31
10.334147
  0
ARC
  5
17A3
100
AcDbEntity
  8
3
100
AcDbCircle
 10
283.196078
 20
201.120725
 30
10.334147
 40
11.5
100
AcDbArc
 50
0.0
 51
180.0
  0
LINE
  5
17A4
100
AcDbEntity
  8
1
100
AcDbLine
 10
283.196078
 20
201.120725
 30
10.334147
 11
296.928782
 21
201.120725
 31
10.334147
  0
LINE
  5
17A5
100
AcDbEntity
  8
3
100
AcDbLine
 10
292.196078
 20
188.515902
 30
10.334147
 11
292.196078
 21
198.878701
 31
10.334147
  0
LINE
  5
17A6
100
AcDbEntity
  8
3
100
AcDbLine
 10
292.196078
 20
188.515902
 30
10.334147
 11
288.507285
 21
186.490818
 31
10.334147
  0
ARC
  5
17A7
100
AcDbEntity
  8
3
100
AcDbCircle
 10
296.727059
 20
196.34121
 30
10.334147
 40
5.193134
100
AcDbArc
 50
113.02231
 51
150.749806
  0
LINE
  5
17A8
100
AcDbEntity
  8
3
100
AcDbLine
 10
313.696078
 20
112.620725
 30
10.334147
 11
313.696078
 21
129.620725
 31
10.334147
  0
ARC
  5
17A9
100
AcDbEntity
  8
3
100
AcDbCircle
 10
310.696078
 20
129.620725
 30
10.334147
 40
3.0
100
AcDbArc
 50
0.0
 51
90.0
  0
ENDBLK
  5
17AB
100
AcDbEntity
  8
0
100
AcDbBlockEnd
  0
BLOCK
  5
18AF
100
AcDbEntity
  8
0
100
AcDbBlockBegin
  2
A$C6EA30A74
 70
     0
 10
0.0
 20
0.0
 30
0.0
  3
A$C6EA30A74
  1

  0
ARC
  5
18A5
100
AcDbEntity
  8
3
100
AcDbCircle
 10
31.91074
 20
44.986498
 30
0.0
 40
44.986523
100
AcDbArc
 50
230.009297
 51
294.406546
  0
LINE
  5
18A6
100
AcDbEntity
  8
1
100
AcDbLine
 10
73.889553
 20
12.52013
 30
0.0
 11
105.867076
 21
12.52013
 31
0.0
  0
LINE
  5
18A7
100
AcDbEntity
  8
1
100
AcDbLine
 10
73.889553
 20
12.52013
 30
0.0
 11
-0.000001
 21
12.52013
 31
0.0
  0
ARC
  5
18A8
100
AcDbEntity
  8
3
100
AcDbCircle
 10
31.91074
 20
-19.946238
 30
0.0
 40
44.986523
100
AcDbArc
 50
65.593454
 51
129.990703
  0
ARC
  5
18A9
100
AcDbEntity
  8
3
100
AcDbCircle
 10
4.499553
 20
12.52013
 30
0.0
 40
2.5
100
AcDbArc
 50
126.869898
 51
233.130102
  0
ARC
  5
18AA
100
AcDbEntity
  8
3
100
AcDbCircle
 10
62.00123
 20
53.092277
 30
0.0
 40
34.072148
100
AcDbArc
 50
250.271208
 51
287.064353
  0
ARC
  5
18AB
100
AcDbEntity
  8
3
100
AcDbCircle
 10
62.00123
 20
-28.052018
 30
0.0
 40
34.072148
100
AcDbArc
 50
72.935647
 51
109.728792
  0
LINE
  5
18AC
100
AcDbEntity
  8
3
100
AcDbLine
 10
71.999553
 20
4.52013
 30
0.0
 11
71.999553
 21
20.52013
 31
0.0
  0
LINE
  5
18AD
100
AcDbEntity
  8
3
100
AcDbLine
 10
79.999553
 20
4.52013
 30
0.0
 11
71.999553
 21
4.52013
 31
0.0
  0
LINE
  5
18AE
100
AcDbEntity
  8
3
100
AcDbLine
 10
71.999553
 20
20.52013
 30
0.0
 11
80.545101
 21
20.52013
 31
0.0
  0
ENDBLK
  5
18B0
100
AcDbEntity
  8
0
100
AcDbBlockEnd
  0
BLOCK
  5
1951
100
AcDbEntity
  8
0
100
AcDbBlockBegin
  2
A$C29EC1754
 70
     0
 10
0.0
 20
0.0
 30
0.0
  3
A$C29EC1754
  1

  0
CIRCLE
  5
18D8
100
AcDbEntity
  8
3
100
AcDbCircle
 10
133.0
 20
124.272568
 30
0.0
 40
112.0
  0
LINE
  5
18D9
100
AcDbEntity
  8
1
100
AcDbLine
 10
0.0
 20
124.272568
 30
0.0
 11
259.0
 21
124.272568
 31
0.0
  0
ARC
  5
18DA
100
AcDbEntity
  8
3
100
AcDbCircle
 10
133.0
 20
124.272568
 30
0.0
 40
88.5
100
AcDbArc
 50
169.139975
 51
226.860025
  0
ARC
  5
18DB
100
AcDbEntity
  8
3
100
AcDbCircle
 10
133.0
 20
124.272568
 30
0.0
 40
88.5
100
AcDbArc
 50
313.139975
 51
10.860025
  0
ARC
  5
18DC
100
AcDbEntity
  8
3
100
AcDbCircle
 10
138.984568
 20
98.28163
 30
0.0
 40
1.604959
100
AcDbArc
 50
110.256593
 51
203.11206
  0
LINE
  5
18DD
100
AcDbEntity
  8
3
100
AcDbLine
 10
193.514798
 20
59.695411
 30
0.0
 11
156.924833
 21
111.75848
 31
0.0
  0
LINE
  5
18DE
100
AcDbEntity
  8
3
100
AcDbLine
 10
72.485202
 20
59.695411
 30
0.0
 11
109.075167
 21
111.75848
 31
0.0
  0
ARC
  5
18DF
100
AcDbEntity
  8
3
100
AcDbCircle
 10
127.015432
 20
98.28163
 30
0.0
 40
1.604959
100
AcDbArc
 50
336.88794
 51
69.743407
  0
ARC
  5
18E0
100
AcDbEntity
  8
3
100
AcDbCircle
 10
133.0
 20
124.272568
 30
0.0
 40
99.5
100
AcDbArc
 50
98.982352
 51
81.017648
  0
LINE
  5
18E1
100
AcDbEntity
  8
1
100
AcDbLine
 10
133.0
 20
255.272568
 30
0.0
 11
133.0
 21
0.0
 31
0.0
  0
ARC
  5
18E2
100
AcDbEntity
  8
3
100
AcDbCircle
 10
133.0
 20
124.272568
 30
0.0
 40
88.5
100
AcDbArc
 50
241.139975
 51
298.860025
  0
LINE
  5
18E3
100
AcDbEntity
  8
3
100
AcDbLine
 10
175.716425
 20
46.764135
 30
0.0
 11
137.508425
 21
97.651634
 31
0.0
  0
LINE
  5
18E4
100
AcDbEntity
  8
3
100
AcDbLine
 10
90.283575
 20
46.764135
 30
0.0
 11
128.491575
 21
97.651634
 31
0.0
  0
ARC
  5
18E5
100
AcDbEntity
  8
3
100
AcDbCircle
 10
102.437862
 20
82.207393
 30
0.0
 40
39.004585
100
AcDbArc
 50
220.192898
 51
247.807102
  0
ARC
  5
18E6
100
AcDbEntity
  8
3
100
AcDbCircle
 10
74.176016
 20
58.461074
 30
0.0
 40
2.093428
100
AcDbArc
 50
143.869625
 51
222.928307
  0
ARC
  5
18E7
100
AcDbEntity
  8
3
100
AcDbCircle
 10
88.587161
 20
47.990764
 30
0.0
 40
2.093428
100
AcDbArc
 50
245.071693
 51
324.130375
  0
ARC
  5
18E8
100
AcDbEntity
  8
3
100
AcDbCircle
 10
133.0
 20
124.272568
 30
0.0
 40
27.0
100
AcDbArc
 50
260.3878
 51
279.6122
  0
ARC
  5
18E9
100
AcDbEntity
  8
3
100
AcDbCircle
 10
163.562138
 20
82.207393
 30
0.0
 40
39.004585
100
AcDbArc
 50
292.192898
 51
319.807102
  0
ARC
  5
18EA
100
AcDbEntity
  8
3
100
AcDbCircle
 10
177.412839
 20
47.990764
 30
0.0
 40
2.093428
100
AcDbArc
 50
215.869625
 51
294.928307
  0
ARC
  5
18EB
100
AcDbEntity
  8
3
100
AcDbCircle
 10
191.823984
 20
58.461074
 30
0.0
 40
2.093428
100
AcDbArc
 50
317.071693
 51
36.130375
  0
ARC
  5
18EC
100
AcDbEntity
  8
3
100
AcDbCircle
 10
133.0
 20
220.694215
 30
0.0
 40
12.421648
100
AcDbArc
 50
180.110992
 51
359.889008
  0
CIRCLE
  5
18ED
100
AcDbEntity
  8
2
100
AcDbCircle
 10
133.0
 20
124.272568
 30
0.0
 40
18.5
  0
CIRCLE
  5
18EE
100
AcDbEntity
  8
3
100
AcDbCircle
 10
133.0
 20
124.272568
 30
0.0
 40
17.5
  0
ARC
  5
18EF
100
AcDbEntity
  8
3
100
AcDbCircle
 10
132.412215
 20
125.081585
 30
0.0
 40
26.0
100
AcDbArc
 50
283.380135
 51
328.619865
  0
ARC
  5
18F0
100
AcDbEntity
  8
3
100
AcDbCircle
 10
133.0
 20
123.272568
 30
0.0
 40
26.0
100
AcDbArc
 50
67.380135
 51
112.619865
  0
LINE
  5
18F1
100
AcDbEntity
  8
1
100
AcDbLine
 10
106.0
 20
219.272568
 30
0.0
 11
163.0
 21
219.272568
 31
0.0
  0
CIRCLE
  5
18F2
100
AcDbEntity
  8
3
100
AcDbCircle
 10
133.0
 20
124.272568
 30
0.0
 40
24.0
  0
ARC
  5
18F3
100
AcDbEntity
  8
3
100
AcDbCircle
 10
133.0
 20
124.272568
 30
0.0
 40
88.5
100
AcDbArc
 50
97.139975
 51
154.860025
  0
LINE
  5
18F4
100
AcDbEntity
  8
3
100
AcDbLine
 10
122.0
 20
212.086291
 30
0.0
 11
121.0
 21
148.459341
 31
0.0
  0
LINE
  5
18F5
100
AcDbEntity
  8
3
100
AcDbLine
 10
52.883373
 20
161.870122
 30
0.0
 11
113.705216
 21
143.15937
 31
0.0
  0
LINE
  5
18F6
100
AcDbEntity
  8
3
100
AcDbLine
 10
46.084999
 20
140.946879
 30
0.0
 11
106.288808
 21
120.334013
 31
0.0
  0
ARC
  5
18F7
100
AcDbEntity
  8
3
100
AcDbCircle
 10
83.549422
 20
140.340034
 30
0.0
 40
39.004585
100
AcDbArc
 50
148.192898
 51
175.807102
  0
ARC
  5
18F8
100
AcDbEntity
  8
3
100
AcDbCircle
 10
46.727372
 20
142.939314
 30
0.0
 40
2.093428
100
AcDbArc
 50
173.071693
 51
252.130375
  0
ARC
  5
18F9
100
AcDbEntity
  8
3
100
AcDbCircle
 10
52.23194
 20
159.880631
 30
0.0
 40
2.093428
100
AcDbArc
 50
71.869625
 51
150.928307
  0
ARC
  5
18FA
100
AcDbEntity
  8
3
100
AcDbCircle
 10
133.951057
 20
123.963551
 30
0.0
 40
26.0
100
AcDbArc
 50
139.380135
 51
184.619865
  0
ARC
  5
18FB
100
AcDbEntity
  8
3
100
AcDbCircle
 10
133.587785
 20
125.081585
 30
0.0
 40
26.0
100
AcDbArc
 50
211.380135
 51
256.619865
  0
ARC
  5
18FC
100
AcDbEntity
  8
3
100
AcDbCircle
 10
133.0
 20
124.272568
 30
0.0
 40
27.0
100
AcDbArc
 50
188.3878
 51
207.6122
  0
ARC
  5
18FD
100
AcDbEntity
  8
3
100
AcDbCircle
 10
110.130482
 20
110.549264
 30
0.0
 40
1.604959
100
AcDbArc
 50
38.256593
 51
131.11206
  0
ARC
  5
18FE
100
AcDbEntity
  8
3
100
AcDbCircle
 10
106.431816
 20
121.932588
 30
0.0
 40
1.604959
100
AcDbArc
 50
264.88794
 51
357.743407
  0
ARC
  5
18FF
100
AcDbEntity
  8
3
100
AcDbCircle
 10
133.0
 20
124.272568
 30
0.0
 40
27.0
100
AcDbArc
 50
116.3878
 51
135.6122
  0
ARC
  5
1900
100
AcDbEntity
  8
3
100
AcDbCircle
 10
112.881293
 20
141.782037
 30
0.0
 40
1.604959
100
AcDbArc
 50
326.256593
 51
59.11206
  0
ARC
  5
1901
100
AcDbEntity
  8
3
100
AcDbCircle
 10
122.564527
 20
148.817319
 30
0.0
 40
1.604959
100
AcDbArc
 50
192.88794
 51
285.743407
  0
ARC
  5
1902
100
AcDbEntity
  8
3
100
AcDbCircle
 10
116.457952
 20
217.370546
 30
0.0
 40
5.278758
100
AcDbArc
 50
38.687503
 51
79.001607
  0
ARC
  5
1903
100
AcDbEntity
  8
3
100
AcDbCircle
 10
123.734986
 20
211.839512
 30
0.0
 40
1.752449
100
AcDbArc
 50
116.853243
 51
171.904734
  0
LINE
  5
1904
100
AcDbEntity
  8
3
100
AcDbLine
 10
144.0
 20
212.086291
 30
0.0
 11
145.0
 21
148.459341
 31
0.0
  0
ARC
  5
1905
100
AcDbEntity
  8
3
100
AcDbCircle
 10
133.0
 20
124.272568
 30
0.0
 40
88.5
100
AcDbArc
 50
25.139975
 51
82.860025
  0
LINE
  5
1906
100
AcDbEntity
  8
3
100
AcDbLine
 10
219.915001
 20
140.946879
 30
0.0
 11
159.711192
 21
120.334013
 31
0.0
  0
LINE
  5
1907
100
AcDbEntity
  8
3
100
AcDbLine
 10
213.116627
 20
161.870122
 30
0.0
 11
152.294784
 21
143.15937
 31
0.0
  0
ARC
  5
1908
100
AcDbEntity
  8
3
100
AcDbCircle
 10
132.048944
 20
123.963551
 30
0.0
 40
26.0
100
AcDbArc
 50
355.380135
 51
40.619865
  0
ARC
  5
1909
100
AcDbEntity
  8
3
100
AcDbCircle
 10
133.0
 20
124.272568
 30
0.0
 40
27.0
100
AcDbArc
 50
332.3878
 51
351.6122
  0
ARC
  5
190A
100
AcDbEntity
  8
3
100
AcDbCircle
 10
155.869518
 20
110.549264
 30
0.0
 40
1.604959
100
AcDbArc
 50
48.88794
 51
141.743407
  0
ARC
  5
190B
100
AcDbEntity
  8
3
100
AcDbCircle
 10
159.568184
 20
121.932588
 30
0.0
 40
1.604959
100
AcDbArc
 50
182.256593
 51
275.11206
  0
ARC
  5
190C
100
AcDbEntity
  8
3
100
AcDbCircle
 10
153.118707
 20
141.782037
 30
0.0
 40
1.604959
100
AcDbArc
 50
120.88794
 51
213.743407
  0
ARC
  5
190D
100
AcDbEntity
  8
3
100
AcDbCircle
 10
133.0
 20
124.272568
 30
0.0
 40
27.0
100
AcDbArc
 50
44.3878
 51
63.6122
  0
ARC
  5
190E
100
AcDbEntity
  8
3
100
AcDbCircle
 10
143.435473
 20
148.817319
 30
0.0
 40
1.604959
100
AcDbArc
 50
254.256593
 51
347.11206
  0
ARC
  5
190F
100
AcDbEntity
  8
3
100
AcDbCircle
 10
182.450578
 20
140.340034
 30
0.0
 40
39.004585
100
AcDbArc
 50
4.192898
 51
31.807102
  0
ARC
  5
1910
100
AcDbEntity
  8
3
100
AcDbCircle
 10
213.76806
 20
159.880631
 30
0.0
 40
2.093428
100
AcDbArc
 50
29.071693
 51
108.130375
  0
ARC
  5
1911
100
AcDbEntity
  8
3
100
AcDbCircle
 10
219.272628
 20
142.939314
 30
0.0
 40
2.093428
100
AcDbArc
 50
287.869625
 51
6.928307
  0
ARC
  5
1912
100
AcDbEntity
  8
3
100
AcDbCircle
 10
149.542048
 20
217.370546
 30
0.0
 40
5.278758
100
AcDbArc
 50
100.998393
 51
141.312497
  0
ARC
  5
1913
100
AcDbEntity
  8
3
100
AcDbCircle
 10
142.265014
 20
211.839512
 30
0.0
 40
1.752449
100
AcDbArc
 50
8.095266
 51
63.146757
  0
LINE
  5
1914
100
AcDbEntity
  8
3
100
AcDbLine
 10
380.5
 20
68.262471
 30
0.0
 11
380.5
 21
100.272568
 31
0.0
  0
ARC
  5
1915
100
AcDbEntity
  8
3
100
AcDbCircle
 10
368.75
 20
115.939234
 30
0.0
 40
20.680271
100
AcDbArc
 50
238.679882
 51
301.320118
  0
LINE
  5
1916
100
AcDbEntity
  8
3
100
AcDbLine
 10
355.5
 20
24.772568
 30
0.0
 11
355.5
 21
124.272568
 31
0.0
  0
LINE
  5
1917
100
AcDbEntity
  8
1
100
AcDbLine
 10
368.0
 20
1.284956
 30
0.0
 11
368.0
 21
254.272568
 31
0.0
  0
ARC
  5
1918
100
AcDbEntity
  8
3
100
AcDbCircle
 10
368.0
 20
24.772568
 30
0.0
 40
11.0
100
AcDbArc
 50
6.769938
 51
173.230062
  0
LINE
  5
1919
100
AcDbEntity
  8
3
100
AcDbLine
 10
380.5
 20
24.772568
 30
0.0
 11
380.5
 21
68.262471
 31
0.0
  0
ARC
  5
191A
100
AcDbEntity
  8
3
100
AcDbCircle
 10
368.0
 20
24.772568
 30
0.0
 40
12.5
100
AcDbArc
 50
180.0
 51
0.0
  0
ARC
  5
191B
100
AcDbEntity
  8
3
100
AcDbCircle
 10
355.153023
 20
26.801388
 30
0.0
 40
2.058278
100
AcDbArc
 50
279.705064
 51
339.164278
  0
ARC
  5
191C
100
AcDbEntity
  8
3
100
AcDbCircle
 10
380.846977
 20
26.801388
 30
0.0
 40
2.058278
100
AcDbArc
 50
200.835722
 51
260.294936
  0
LINE
  5
191D
100
AcDbEntity
  8
3
100
AcDbLine
 10
373.5
 20
52.772568
 30
0.0
 11
374.0
 21
95.936457
 31
0.0
  0
LINE
  5
191E
100
AcDbEntity
  8
3
100
AcDbLine
 10
362.5
 20
52.772568
 30
0.0
 11
362.0
 21
96.391572
 31
0.0
  0
ARC
  5
191F
100
AcDbEntity
  8
3
100
AcDbCircle
 10
368.013899
 20
52.135665
 30
0.0
 40
5.863114
100
AcDbArc
 50
269.864179
 51
318.718794
  0
ARC
  5
1920
100
AcDbEntity
  8
3
100
AcDbCircle
 10
367.986101
 20
52.135665
 30
0.0
 40
5.863114
100
AcDbArc
 50
221.281206
 51
270.135821
  0
ARC
  5
1921
100
AcDbEntity
  8
3
100
AcDbCircle
 10
372.154476
 20
52.705155
 30
0.0
 40
9.654711
100
AcDbArc
 50
179.599937
 51
207.364002
  0
ARC
  5
1922
100
AcDbEntity
  8
3
100
AcDbCircle
 10
363.845524
 20
52.705155
 30
0.0
 40
9.654711
100
AcDbArc
 50
332.635998
 51
0.400063
  0
LINE
  5
1923
100
AcDbEntity
  8
2
100
AcDbLine
 10
362.5
 20
208.272568
 30
0.0
 11
362.0
 21
152.153563
 31
0.0
  0
LINE
  5
1924
100
AcDbEntity
  8
2
100
AcDbLine
 10
373.5
 20
208.272568
 30
0.0
 11
374.0
 21
152.608679
 31
0.0
  0
LINE
  5
1925
100
AcDbEntity
  8
3
100
AcDbLine
 10
355.5
 20
223.772568
 30
0.0
 11
355.5
 21
124.272568
 31
0.0
  0
LINE
  5
1926
100
AcDbEntity
  8
3
100
AcDbLine
 10
380.5
 20
223.772568
 30
0.0
 11
380.5
 21
124.272568
 31
0.0
  0
LINE
  5
1927
100
AcDbEntity
  8
2
100
AcDbLine
 10
397.5
 20
141.772568
 30
0.0
 11
387.0
 21
141.772568
 31
0.0
  0
LINE
  5
1928
100
AcDbEntity
  8
3
100
AcDbLine
 10
387.0
 20
106.772568
 30
0.0
 11
397.5
 21
106.772568
 31
0.0
  0
ARC
  5
1929
100
AcDbEntity
  8
3
100
AcDbCircle
 10
394.5
 20
103.272568
 30
0.0
 40
3.0
100
AcDbArc
 50
270.0
 51
0.0
  0
ARC
  5
192A
100
AcDbEntity
  8
3
100
AcDbCircle
 10
394.5
 20
145.272568
 30
0.0
 40
3.0
100
AcDbArc
 50
0.0
 51
90.0
  0
LINE
  5
192B
100
AcDbEntity
  8
1
100
AcDbLine
 10
347.0
 20
124.272568
 30
0.0
 11
403.5
 21
124.272568
 31
0.0
  0
LINE
  5
192C
100
AcDbEntity
  8
2
100
AcDbLine
 10
387.0
 20
142.772568
 30
0.0
 11
387.0
 21
124.272568
 31
0.0
  0
LINE
  5
192D
100
AcDbEntity
  8
2
100
AcDbLine
 10
385.0
 20
124.272568
 30
0.0
 11
385.0
 21
142.772568
 31
0.0
  0
LINE
  5
192E
100
AcDbEntity
  8
2
100
AcDbLine
 10
370.0
 20
142.772568
 30
0.0
 11
370.0
 21
124.272568
 31
0.0
  0
LINE
  5
192F
100
AcDbEntity
  8
2
100
AcDbLine
 10
368.0
 20
124.272568
 30
0.0
 11
368.0
 21
142.772568
 31
0.0
  0
LINE
  5
1930
100
AcDbEntity
  8
2
100
AcDbLine
 10
379.5
 20
148.272568
 30
0.0
 11
379.5
 21
124.272568
 31
0.0
  0
LINE
  5
1931
100
AcDbEntity
  8
2
100
AcDbLine
 10
357.5
 20
124.272568
 30
0.0
 11
357.5
 21
148.272568
 31
0.0
  0
LINE
  5
1932
100
AcDbEntity
  8
3
100
AcDbLine
 10
370.0
 20
105.772568
 30
0.0
 11
368.0
 21
105.772568
 31
0.0
  0
LINE
  5
1933
100
AcDbEntity
  8
3
100
AcDbLine
 10
368.0
 20
105.772568
 30
0.0
 11
368.0
 21
124.272568
 31
0.0
  0
LINE
  5
1934
100
AcDbEntity
  8
3
100
AcDbLine
 10
357.5
 20
100.922662
 30
0.0
 11
357.5
 21
124.272568
 31
0.0
  0
LINE
  5
1935
100
AcDbEntity
  8
3
100
AcDbLine
 10
357.5
 20
100.922662
 30
0.0
 11
357.5
 21
100.272568
 31
0.0
  0
LINE
  5
1936
100
AcDbEntity
  8
3
100
AcDbLine
 10
357.5
 20
100.272568
 30
0.0
 11
358.0
 21
98.272568
 31
0.0
  0
LINE
  5
1937
100
AcDbEntity
  8
3
100
AcDbLine
 10
357.5
 20
106.772568
 30
0.0
 11
368.0
 21
106.772568
 31
0.0
  0
LINE
  5
1938
100
AcDbEntity
  8
3
100
AcDbLine
 10
385.0
 20
105.772568
 30
0.0
 11
385.0
 21
124.272568
 31
0.0
  0
LINE
  5
1939
100
AcDbEntity
  8
3
100
AcDbLine
 10
370.0
 20
105.772568
 30
0.0
 11
370.0
 21
124.272568
 31
0.0
  0
LINE
  5
193A
100
AcDbEntity
  8
3
100
AcDbLine
 10
387.0
 20
105.772568
 30
0.0
 11
387.0
 21
124.272568
 31
0.0
  0
LINE
  5
193B
100
AcDbEntity
  8
3
100
AcDbLine
 10
370.0
 20
106.772568
 30
0.0
 11
385.0
 21
106.772568
 31
0.0
  0
LINE
  5
193C
100
AcDbEntity
  8
3
100
AcDbLine
 10
394.5
 20
100.272568
 30
0.0
 11
379.5
 21
100.272568
 31
0.0
  0
LINE
  5
193D
100
AcDbEntity
  8
3
100
AcDbLine
 10
379.5
 20
98.272568
 30
0.0
 11
379.5
 21
100.272568
 31
0.0
  0
LINE
  5
193E
100
AcDbEntity
  8
3
100
AcDbLine
 10
385.0
 20
105.772568
 30
0.0
 11
387.0
 21
105.772568
 31
0.0
  0
LINE
  5
193F
100
AcDbEntity
  8
2
100
AcDbLine
 10
368.0
 20
142.772568
 30
0.0
 11
370.0
 21
142.772568
 31
0.0
  0
ARC
  5
1940
100
AcDbEntity
  8
2
100
AcDbCircle
 10
367.839021
 20
156.625648
 30
0.0
 40
7.354842
100
AcDbArc
 50
217.44837
 51
326.895576
  0
ARC
  5
1941
100
AcDbEntity
  8
2
100
AcDbCircle
 10
368.75
 20
132.605901
 30
0.0
 40
20.680271
100
AcDbArc
 50
109.050297
 51
121.320118
  0
LINE
  5
1942
100
AcDbEntity
  8
2
100
AcDbLine
 10
368.0
 20
141.772568
 30
0.0
 11
357.5
 21
141.772568
 31
0.0
  0
LINE
  5
1943
100
AcDbEntity
  8
2
100
AcDbLine
 10
357.5
 20
148.272568
 30
0.0
 11
358.0
 21
150.272568
 31
0.0
  0
ARC
  5
1944
100
AcDbEntity
  8
2
100
AcDbCircle
 10
368.75
 20
132.605901
 30
0.0
 40
20.680271
100
AcDbArc
 50
58.679882
 51
75.29365
  0
LINE
  5
1945
100
AcDbEntity
  8
2
100
AcDbLine
 10
385.0
 20
141.772568
 30
0.0
 11
370.0
 21
141.772568
 31
0.0
  0
LINE
  5
1946
100
AcDbEntity
  8
3
100
AcDbLine
 10
394.5
 20
148.272568
 30
0.0
 11
380.5
 21
148.272568
 31
0.0
  0
LINE
  5
1947
100
AcDbEntity
  8
2
100
AcDbLine
 10
379.5
 20
148.272568
 30
0.0
 11
379.5
 21
150.272568
 31
0.0
  0
LINE
  5
1948
100
AcDbEntity
  8
2
100
AcDbLine
 10
380.5
 20
148.272568
 30
0.0
 11
379.5
 21
148.272568
 31
0.0
  0
LINE
  5
1949
100
AcDbEntity
  8
2
100
AcDbLine
 10
385.0
 20
142.772568
 30
0.0
 11
387.0
 21
142.772568
 31
0.0
  0
LINE
  5
194A
100
AcDbEntity
  8
3
100
AcDbLine
 10
397.5
 20
145.272568
 30
0.0
 11
397.5
 21
124.272568
 31
0.0
  0
LINE
  5
194B
100
AcDbEntity
  8
3
100
AcDbLine
 10
397.5
 20
103.272568
 30
0.0
 11
397.5
 21
124.272568
 31
0.0
  0
LINE
  5
194C
100
AcDbEntity
  8
1
100
AcDbLine
 10
349.0
 20
219.272568
 30
0.0
 11
387.0
 21
219.272568
 31
0.0
  0
LINE
  5
194D
100
AcDbEntity
  8
2
100
AcDbLine
 10
355.5
 20
208.272568
 30
0.0
 11
378.923302
 21
208.272568
 31
0.0
  0
ARC
  5
194E
100
AcDbEntity
  8
3
100
AcDbCircle
 10
368.0
 20
223.772568
 30
0.0
 40
12.5
100
AcDbArc
 50
0.0
 51
180.0
  0
LINE
  5
194F
100
AcDbEntity
  8
2
100
AcDbLine
 10
378.923302
 20
208.272568
 30
0.0
 11
378.923302
 21
222.475855
 31
0.0
  0
ARC
  5
1950
100
AcDbEntity
  8
2
100
AcDbCircle
 10
380.3333
 20
222.368336
 30
0.0
 40
1.414091
100
AcDbArc
 50
83.22997
 51
175.639372
  0
ENDBLK
  5
1952
100
AcDbEntity
  8
0
100
AcDbBlockEnd
  0
BLOCK
  5
19DF
100
AcDbEntity
  8
0
100
AcDbBlockBegin
  2
A$C577F4D59
 70
     0
 10
0.0
 20
0.0
 30
0.0
  3
A$C577F4D59
  1

  0
ARC
  5
19D5
100
AcDbEntity
  8
3
100
AcDbCircle
 10
31.91074
 20
44.986498
 30
0.0
 40
44.986523
100
AcDbArc
 50
230.009297
 51
294.406546
  0
LINE
  5
19D6
100
AcDbEntity
  8
1
100
AcDbLine
 10
73.889553
 20
12.52013
 30
0.0
 11
105.867076
 21
12.52013
 31
0.0
  0
LINE
  5
19D7
100
AcDbEntity
  8
1
100
AcDbLine
 10
73.889553
 20
12.52013
 30
0.0
 11
-0.000001
 21
12.52013
 31
0.0
  0
ARC
  5
19D8
100
AcDbEntity
  8
3
100
AcDbCircle
 10
31.91074
 20
-19.946238
 30
0.0
 40
44.986523
100
AcDbArc
 50
65.593454
 51
129.990703
  0
ARC
  5
19D9
100
AcDbEntity
  8
3
100
AcDbCircle
 10
4.499553
 20
12.52013
 30
0.0
 40
2.5
100
AcDbArc
 50
126.869898
 51
233.130102
  0
ARC
  5
19DA
100
AcDbEntity
  8
3
100
AcDbCircle
 10
62.00123
 20
53.092277
 30
0.0
 40
34.072148
100
AcDbArc
 50
250.271208
 51
287.064353
  0
ARC
  5
19DB
100
AcDbEntity
  8
3
100
AcDbCircle
 10
62.00123
 20
-28.052018
 30
0.0
 40
34.072148
100
AcDbArc
 50
72.935647
 51
109.728792
  0
LINE
  5
19DC
100
AcDbEntity
  8
3
100
AcDbLine
 10
71.999553
 20
4.52013
 30
0.0
 11
71.999553
 21
20.52013
 31
0.0
  0
LINE
  5
19DD
100
AcDbEntity
  8
3
100
AcDbLine
 10
79.999553
 20
4.52013
 30
0.0
 11
71.999553
 21
4.52013
 31
0.0
  0
LINE
  5
19DE
100
AcDbEntity
  8
3
100
AcDbLine
 10
71.999553
 20
20.52013
 30
0.0
 11
80.545101
 21
20.52013
 31
0.0
  0
ENDBLK
  5
19E0
100
AcDbEntity
  8
0
100
AcDbBlockEnd
  0
BLOCK
  5
1A9F
100
AcDbEntity
  8
0
100
AcDbBlockBegin
  2
A$C32EE7A19
 70
     0
 10
0.0
 20
0.0
 30
0.0
  3
A$C32EE7A19
  1

  0
ARC
  5
19F6
100
AcDbEntity
  8
3
100
AcDbCircle
 10
136.5
 20
133.771453
 30
0.0
 40
111.5
100
AcDbArc
 50
99.029946
 51
90.0
  0
ARC
  5
19F7
100
AcDbEntity
  8
3
100
AcDbCircle
 10
219.987977
 20
95.330428
 30
0.0
 40
9.127236
100
AcDbArc
 50
285.021368
 51
25.532367
  0
LINE
  5
19F8
100
AcDbEntity
  8
1
100
AcDbLine
 10
136.5
 20
133.771453
 30
0.0
 11
264.350847
 21
175.312711
 31
0.0
  0
ARC
  5
19F9
100
AcDbEntity
  8
3
100
AcDbCircle
 10
226.331984
 20
173.271324
 30
0.0
 40
1.221159
100
AcDbArc
 50
20.908112
 51
120.328088
  0
LINE
  5
19FA
100
AcDbEntity
  8
3
100
AcDbLine
 10
166.230948
 20
129.762614
 30
0.0
 11
232.513733
 21
153.402121
 31
0.0
  0
CIRCLE
  5
19FB
100
AcDbEntity
  8
3
100
AcDbCircle
 10
136.5
 20
133.771453
 30
0.0
 40
125.0
  0
LINE
  5
19FC
100
AcDbEntity
  8
1
100
AcDbLine
 10
0.0
 20
133.771453
 30
0.0
 11
270.5
 21
133.771453
 31
0.0
  0
CIRCLE
  5
19FD
100
AcDbEntity
  8
3
100
AcDbCircle
 10
136.604555
 20
133.933049
 30
0.0
 40
24.0
  0
CIRCLE
  5
19FE
100
AcDbEntity
  8
3
100
AcDbCircle
 10
136.5
 20
134.028405
 30
0.0
 40
27.0
  0
LINE
  5
19FF
100
AcDbEntity
  8
1
100
AcDbLine
 10
136.5
 20
133.771453
 30
0.0
 11
7.747297
 21
108.744463
 31
0.0
  0
LINE
  5
1A00
100
AcDbEntity
  8
1
100
AcDbLine
 10
136.5
 20
133.771453
 30
0.0
 11
16.504544
 21
77.816653
 31
0.0
  0
LINE
  5
1A01
100
AcDbEntity
  8
1
100
AcDbLine
 10
136.5
 20
133.771453
 30
0.0
 11
33.834115
 21
50.634258
 31
0.0
  0
LINE
  5
1A02
100
AcDbEntity
  8
1
100
AcDbLine
 10
136.5
 20
133.771453
 30
0.0
 11
136.5
 21
0.0
 31
0.0
  0
LINE
  5
1A03
100
AcDbEntity
  8
1
100
AcDbLine
 10
136.5
 20
133.771453
 30
0.0
 11
215.516169
 21
25.015027
 31
0.0
  0
LINE
  5
1A04
100
AcDbEntity
  8
1
100
AcDbLine
 10
136.5
 20
133.771453
 30
0.0
 11
57.483832
 21
25.015027
 31
0.0
  0
ARC
  5
1A05
100
AcDbEntity
  8
3
100
AcDbCircle
 10
46.361741
 20
115.797894
 30
0.0
 40
9.127236
100
AcDbArc
 50
141.021368
 51
241.532367
  0
ARC
  5
1A06
100
AcDbEntity
  8
3
100
AcDbCircle
 10
134.53873
 20
136.470911
 30
0.0
 40
31.542155
100
AcDbArc
 50
285.680529
 51
326.319471
  0
LINE
  5
1A07
100
AcDbEntity
  8
3
100
AcDbLine
 10
162.909178
 20
119.539259
 30
0.0
 11
202.638125
 21
61.454452
 31
0.0
  0
ARC
  5
1A08
100
AcDbEntity
  8
3
100
AcDbCircle
 10
138.461271
 20
136.470911
 30
0.0
 40
31.542155
100
AcDbArc
 50
213.680529
 51
254.319471
  0
LINE
  5
1A09
100
AcDbEntity
  8
3
100
AcDbLine
 10
110.090823
 20
119.539259
 30
0.0
 11
70.361876
 21
61.454452
 31
0.0
  0
ARC
  5
1A0A
100
AcDbEntity
  8
3
100
AcDbCircle
 10
106.291291
 20
92.192731
 30
0.0
 40
48.48197
100
AcDbArc
 50
222.254827
 51
245.745173
  0
ARC
  5
1A0B
100
AcDbEntity
  8
3
100
AcDbCircle
 10
65.350716
 20
75.584393
 30
0.0
 40
9.127236
100
AcDbArc
 50
169.021368
 51
269.532367
  0
ARC
  5
1A0C
100
AcDbEntity
  8
3
100
AcDbCircle
 10
136.5
 20
133.771453
 30
0.0
 40
98.0
100
AcDbArc
 50
223.383439
 51
227.55526
  0
ARC
  5
1A0D
100
AcDbEntity
  8
3
100
AcDbCircle
 10
71.173781
 20
60.54229
 30
0.0
 40
1.221159
100
AcDbArc
 50
131.671912
 51
231.091888
  0
ARC
  5
1A0E
100
AcDbEntity
  8
3
100
AcDbCircle
 10
53.012024
 20
95.330428
 30
0.0
 40
9.127236
100
AcDbArc
 50
154.467633
 51
254.978632
  0
ARC
  5
1A0F
100
AcDbEntity
  8
3
100
AcDbCircle
 10
136.5
 20
133.771453
 30
0.0
 40
98.0
100
AcDbArc
 50
208.829705
 51
215.170295
  0
ARC
  5
1A10
100
AcDbEntity
  8
3
100
AcDbCircle
 10
136.5
 20
133.771453
 30
0.0
 40
98.0
100
AcDbArc
 50
195.383439
 51
200.616561
  0
ARC
  5
1A11
100
AcDbEntity
  8
3
100
AcDbCircle
 10
147.260384
 20
42.490739
 30
0.0
 40
9.127236
100
AcDbArc
 50
226.467633
 51
326.978632
  0
LINE
  5
1A12
100
AcDbEntity
  8
3
100
AcDbLine
 10
141.874736
 20
104.256843
 30
0.0
 11
184.839751
 21
48.523177
 31
0.0
  0
LINE
  5
1A13
100
AcDbEntity
  8
3
100
AcDbLine
 10
131.125265
 20
104.256843
 30
0.0
 11
88.16025
 21
48.523177
 31
0.0
  0
ARC
  5
1A14
100
AcDbEntity
  8
3
100
AcDbCircle
 10
136.5
 20
133.771453
 30
0.0
 40
98.0
100
AcDbArc
 50
252.829705
 51
259.170295
  0
ARC
  5
1A15
100
AcDbEntity
  8
3
100
AcDbCircle
 10
103.147156
 20
48.123672
 30
0.0
 40
9.127236
100
AcDbArc
 50
198.467633
 51
298.978632
  0
ARC
  5
1A16
100
AcDbEntity
  8
3
100
AcDbCircle
 10
136.5
 20
133.771453
 30
0.0
 40
98.0
100
AcDbArc
 50
240.44474
 51
244.616561
  0
ARC
  5
1A17
100
AcDbEntity
  8
3
100
AcDbCircle
 10
87.04184
 20
49.013471
 30
0.0
 40
1.221159
100
AcDbArc
 50
236.908112
 51
336.328088
  0
ARC
  5
1A18
100
AcDbEntity
  8
3
100
AcDbCircle
 10
136.5
 20
133.771453
 30
0.0
 40
98.0
100
AcDbArc
 50
267.383439
 51
272.616561
  0
ARC
  5
1A19
100
AcDbEntity
  8
3
100
AcDbCircle
 10
125.739617
 20
42.490739
 30
0.0
 40
9.127236
100
AcDbArc
 50
213.021368
 51
313.532367
  0
ARC
  5
1A1A
100
AcDbEntity
  8
3
100
AcDbCircle
 10
136.5
 20
133.771453
 30
0.0
 40
30.0
100
AcDbArc
 50
259.679289
 51
280.320711
  0
ARC
  5
1A1B
100
AcDbEntity
  8
3
100
AcDbCircle
 10
129.079241
 20
104.244722
 30
0.0
 40
2.046059
100
AcDbArc
 50
0.339427
 51
65.236858
  0
ARC
  5
1A1C
100
AcDbEntity
  8
3
100
AcDbCircle
 10
143.92076
 20
104.244722
 30
0.0
 40
2.046059
100
AcDbArc
 50
114.763142
 51
179.660573
  0
ARC
  5
1A1D
100
AcDbEntity
  8
3
100
AcDbCircle
 10
136.5
 20
133.771453
 30
0.0
 40
98.0
100
AcDbArc
 50
312.44474
 51
316.616561
  0
ARC
  5
1A1E
100
AcDbEntity
  8
3
100
AcDbCircle
 10
207.649285
 20
75.584393
 30
0.0
 40
9.127236
100
AcDbArc
 50
270.467633
 51
10.978632
  0
ARC
  5
1A1F
100
AcDbEntity
  8
3
100
AcDbCircle
 10
166.70871
 20
92.192731
 30
0.0
 40
48.48197
100
AcDbArc
 50
294.254827
 51
317.745173
  0
ARC
  5
1A20
100
AcDbEntity
  8
3
100
AcDbCircle
 10
136.5
 20
133.771453
 30
0.0
 40
98.0
100
AcDbArc
 50
280.829705
 51
287.170295
  0
ARC
  5
1A21
100
AcDbEntity
  8
3
100
AcDbCircle
 10
169.852845
 20
48.123672
 30
0.0
 40
9.127236
100
AcDbArc
 50
241.021368
 51
341.532367
  0
ARC
  5
1A22
100
AcDbEntity
  8
3
100
AcDbCircle
 10
136.5
 20
133.771453
 30
0.0
 40
98.0
100
AcDbArc
 50
295.383439
 51
299.55526
  0
ARC
  5
1A23
100
AcDbEntity
  8
3
100
AcDbCircle
 10
185.958161
 20
49.013471
 30
0.0
 40
1.221159
100
AcDbArc
 50
203.671912
 51
303.091888
  0
ARC
  5
1A24
100
AcDbEntity
  8
3
100
AcDbCircle
 10
201.82622
 20
60.54229
 30
0.0
 40
1.221159
100
AcDbArc
 50
308.908112
 51
48.328088
  0
ARC
  5
1A25
100
AcDbEntity
  8
3
100
AcDbCircle
 10
136.5
 20
133.771453
 30
0.0
 40
98.0
100
AcDbArc
 50
324.829705
 51
331.170295
  0
LINE
  5
1A26
100
AcDbEntity
  8
1
100
AcDbLine
 10
136.5
 20
133.771453
 30
0.0
 11
6.042987
 21
140.608415
 31
0.0
  0
LINE
  5
1A27
100
AcDbEntity
  8
1
100
AcDbLine
 10
136.5
 20
133.771453
 30
0.0
 11
8.649154
 21
175.312711
 31
0.0
  0
ARC
  5
1A28
100
AcDbEntity
  8
3
100
AcDbCircle
 10
136.5
 20
133.771453
 30
0.0
 40
98.0
100
AcDbArc
 50
123.383439
 51
128.616561
  0
LINE
  5
1A29
100
AcDbEntity
  8
3
100
AcDbLine
 10
114.803495
 20
154.490084
 30
0.0
 11
47.284642
 21
174.325365
 31
0.0
  0
LINE
  5
1A2A
100
AcDbEntity
  8
3
100
AcDbLine
 10
106.769053
 20
129.762614
 30
0.0
 11
40.486268
 21
153.402121
 31
0.0
  0
ARC
  5
1A2B
100
AcDbEntity
  8
3
100
AcDbCircle
 10
87.621282
 20
149.653111
 30
0.0
 40
48.48197
100
AcDbArc
 50
150.254827
 51
173.745173
  0
ARC
  5
1A2C
100
AcDbEntity
  8
3
100
AcDbCircle
 10
44.737525
 20
139.025273
 30
0.0
 40
9.127236
100
AcDbArc
 50
126.467633
 51
226.978632
  0
ARC
  5
1A2D
100
AcDbEntity
  8
3
100
AcDbCircle
 10
136.5
 20
133.771453
 30
0.0
 40
98.0
100
AcDbArc
 50
180.829705
 51
187.170295
  0
ARC
  5
1A2E
100
AcDbEntity
  8
3
100
AcDbCircle
 10
136.5
 20
133.771453
 30
0.0
 40
98.0
100
AcDbArc
 50
168.44474
 51
172.616561
  0
ARC
  5
1A2F
100
AcDbEntity
  8
3
100
AcDbCircle
 10
40.606957
 20
154.617302
 30
0.0
 40
1.221159
100
AcDbArc
 50
164.908112
 51
264.328088
  0
ARC
  5
1A30
100
AcDbEntity
  8
3
100
AcDbCircle
 10
136.5
 20
133.771453
 30
0.0
 40
98.0
100
AcDbArc
 50
136.829705
 51
143.170295
  0
ARC
  5
1A31
100
AcDbEntity
  8
3
100
AcDbCircle
 10
59.17448
 20
183.457653
 30
0.0
 40
9.127236
100
AcDbArc
 50
97.021368
 51
197.532367
  0
ARC
  5
1A32
100
AcDbEntity
  8
3
100
AcDbCircle
 10
136.5
 20
133.771453
 30
0.0
 40
98.0
100
AcDbArc
 50
151.383439
 51
155.55526
  0
ARC
  5
1A33
100
AcDbEntity
  8
3
100
AcDbCircle
 10
46.668017
 20
173.271324
 30
0.0
 40
1.221159
100
AcDbArc
 50
59.671912
 51
159.091888
  0
ARC
  5
1A34
100
AcDbEntity
  8
3
100
AcDbCircle
 10
74.14121
 20
201.294307
 30
0.0
 40
9.127236
100
AcDbArc
 50
82.467633
 51
182.978632
  0
LINE
  5
1A35
100
AcDbEntity
  8
1
100
AcDbLine
 10
136.5
 20
133.771453
 30
0.0
 11
136.5
 21
268.572136
 31
0.0
  0
ARC
  5
1A36
100
AcDbEntity
  8
3
100
AcDbCircle
 10
136.5
 20
133.771453
 30
0.0
 40
98.0
100
AcDbArc
 50
108.829705
 51
115.170295
  0
ARC
  5
1A37
100
AcDbEntity
  8
3
100
AcDbCircle
 10
91.551876
 20
213.943897
 30
0.0
 40
9.127236
100
AcDbArc
 50
69.021368
 51
169.532367
  0
ARC
  5
1A38
100
AcDbEntity
  8
3
100
AcDbCircle
 10
136.5
 20
133.771453
 30
0.0
 40
98.0
100
AcDbArc
 50
64.829705
 51
71.170295
  0
ARC
  5
1A39
100
AcDbEntity
  8
3
100
AcDbCircle
 10
181.448125
 20
213.943897
 30
0.0
 40
9.127236
100
AcDbArc
 50
10.467633
 51
110.978632
  0
LINE
  5
1A3A
100
AcDbEntity
  8
3
100
AcDbLine
 10
123.5
 20
160.808465
 30
0.0
 11
125.5
 21
231.152149
 31
0.0
  0
LINE
  5
1A3B
100
AcDbEntity
  8
3
100
AcDbLine
 10
149.5
 20
160.808465
 30
0.0
 11
147.5
 21
231.152149
 31
0.0
  0
ARC
  5
1A3C
100
AcDbEntity
  8
3
100
AcDbCircle
 10
136.5
 20
133.771453
 30
0.0
 40
30.0
100
AcDbArc
 50
43.679289
 51
64.320711
  0
ARC
  5
1A3D
100
AcDbEntity
  8
3
100
AcDbCircle
 10
139.673404
 20
132.740352
 30
0.0
 40
31.542155
100
AcDbArc
 50
141.680529
 51
182.319471
  0
ARC
  5
1A3E
100
AcDbEntity
  8
3
100
AcDbCircle
 10
106.12527
 20
131.704753
 30
0.0
 40
2.046059
100
AcDbArc
 50
288.339427
 51
353.236858
  0
ARC
  5
1A3F
100
AcDbEntity
  8
3
100
AcDbCircle
 10
136.5
 20
133.771453
 30
0.0
 40
30.0
100
AcDbArc
 50
187.679289
 51
208.320711
  0
ARC
  5
1A40
100
AcDbEntity
  8
3
100
AcDbCircle
 10
110.711551
 20
117.58963
 30
0.0
 40
2.046059
100
AcDbArc
 50
42.763142
 51
107.660573
  0
ARC
  5
1A41
100
AcDbEntity
  8
3
100
AcDbCircle
 10
136.5
 20
130.434739
 30
0.0
 40
31.542155
100
AcDbArc
 50
69.680529
 51
110.319471
  0
ARC
  5
1A42
100
AcDbEntity
  8
3
100
AcDbCircle
 10
136.5
 20
133.771453
 30
0.0
 40
30.0
100
AcDbArc
 50
115.679289
 51
136.320711
  0
ARC
  5
1A43
100
AcDbEntity
  8
3
100
AcDbCircle
 10
113.141103
 20
153.297267
 30
0.0
 40
2.046059
100
AcDbArc
 50
330.763142
 51
35.660573
  0
ARC
  5
1A44
100
AcDbEntity
  8
3
100
AcDbCircle
 10
125.148144
 20
162.020893
 30
0.0
 40
2.046059
100
AcDbArc
 50
216.339427
 51
281.236858
  0
ARC
  5
1A45
100
AcDbEntity
  8
3
100
AcDbCircle
 10
147.851857
 20
162.020893
 30
0.0
 40
2.046059
100
AcDbArc
 50
258.763142
 51
323.660573
  0
LINE
  5
1A46
100
AcDbEntity
  8
3
100
AcDbLine
 10
158.196506
 20
154.490084
 30
0.0
 11
225.715359
 21
174.325365
 31
0.0
  0
TEXT
  5
1A47
100
AcDbEntity
  8
3
100
AcDbText
 10
178.594524
 20
144.011905
 30
0.0
 40
7.0
  1
Ｓ/ＳＮ-250
 50
18.0
 41
0.8
  7
BIGFONT
100
AcDbText
  0
ARC
  5
1A48
100
AcDbEntity
  8
3
100
AcDbCircle
 10
133.326597
 20
132.740352
 30
0.0
 40
31.542155
100
AcDbArc
 50
357.680529
 51
38.319471
  0
ARC
  5
1A49
100
AcDbEntity
  8
3
100
AcDbCircle
 10
166.874731
 20
131.704753
 30
0.0
 40
2.046059
100
AcDbArc
 50
186.763142
 51
251.660573
  0
ARC
  5
1A4A
100
AcDbEntity
  8
3
100
AcDbCircle
 10
136.5
 20
133.771453
 30
0.0
 40
30.0
100
AcDbArc
 50
331.679289
 51
352.320711
  0
ARC
  5
1A4B
100
AcDbEntity
  8
3
100
AcDbCircle
 10
162.28845
 20
117.58963
 30
0.0
 40
2.046059
100
AcDbArc
 50
72.339427
 51
137.236858
  0
ARC
  5
1A4C
100
AcDbEntity
  8
3
100
AcDbCircle
 10
159.858898
 20
153.297267
 30
0.0
 40
2.046059
100
AcDbArc
 50
144.339427
 51
209.236858
  0
ARC
  5
1A4D
100
AcDbEntity
  8
3
100
AcDbCircle
 10
136.5
 20
133.771453
 30
0.0
 40
98.0
100
AcDbArc
 50
36.829705
 51
43.170295
  0
ARC
  5
1A4E
100
AcDbEntity
  8
3
100
AcDbCircle
 10
213.825521
 20
183.457653
 30
0.0
 40
9.127236
100
AcDbArc
 50
342.467633
 51
82.978632
  0
ARC
  5
1A4F
100
AcDbEntity
  8
3
100
AcDbCircle
 10
136.5
 20
133.771453
 30
0.0
 40
98.0
100
AcDbArc
 50
24.44474
 51
28.616561
  0
ARC
  5
1A50
100
AcDbEntity
  8
3
100
AcDbCircle
 10
198.858791
 20
201.294307
 30
0.0
 40
9.127236
100
AcDbArc
 50
357.021368
 51
97.532367
  0
ARC
  5
1A51
100
AcDbEntity
  8
3
100
AcDbCircle
 10
136.5
 20
133.771453
 30
0.0
 40
98.0
100
AcDbArc
 50
51.383439
 51
56.616561
  0
ARC
  5
1A52
100
AcDbEntity
  8
3
100
AcDbCircle
 10
152.683533
 20
239.272028
 30
0.0
 40
5.208587
100
AcDbArc
 50
105.644252
 51
163.26919
  0
ARC
  5
1A53
100
AcDbEntity
  8
3
100
AcDbCircle
 10
136.5
 20
133.771453
 30
0.0
 40
98.0
100
AcDbArc
 50
79.383439
 51
83.55526
  0
LINE
  5
1A54
100
AcDbEntity
  8
1
100
AcDbLine
 10
161.5
 20
240.771453
 30
0.0
 11
113.0
 21
240.771453
 31
0.0
  0
ARC
  5
1A55
100
AcDbEntity
  8
3
100
AcDbCircle
 10
113.140516
 20
222.666273
 30
0.0
 40
9.127236
100
AcDbArc
 50
54.467633
 51
154.978632
  0
LINE
  5
1A56
100
AcDbEntity
  8
1
100
AcDbLine
 10
124.59412
 20
239.271453
 30
0.0
 11
136.606117
 21
239.271453
 31
0.0
  0
ARC
  5
1A57
100
AcDbEntity
  8
3
100
AcDbCircle
 10
136.5
 20
240.771453
 30
0.0
 40
12.0
100
AcDbArc
 50
187.180756
 51
270.0
  0
ARC
  5
1A58
100
AcDbEntity
  8
3
100
AcDbCircle
 10
136.5
 20
133.771453
 30
0.0
 40
98.0
100
AcDbArc
 50
96.44474
 51
100.616561
  0
ARC
  5
1A59
100
AcDbEntity
  8
3
100
AcDbCircle
 10
136.5
 20
185.165579
 30
0.0
 40
48.48197
100
AcDbArc
 50
100.671476
 51
101.745173
  0
ARC
  5
1A5A
100
AcDbEntity
  8
3
100
AcDbCircle
 10
126.693001
 20
231.412878
 30
0.0
 40
1.221159
100
AcDbArc
 50
92.908112
 51
192.328088
  0
ARC
  5
1A5B
100
AcDbEntity
  8
3
100
AcDbCircle
 10
117.841048
 20
236.78843
 30
0.0
 40
7.195094
100
AcDbArc
 50
20.187866
 51
80.730679
  0
ARC
  5
1A5C
100
AcDbEntity
  8
3
100
AcDbCircle
 10
136.5
 20
240.771453
 30
0.0
 40
11.195436
100
AcDbArc
 50
270.0
 51
0.0
  0
LINE
  5
1A5D
100
AcDbEntity
  8
3
100
AcDbLine
 10
146.368955
 20
232.632464
 30
0.0
 11
144.267961
 21
232.709407
 31
0.0
  0
ARC
  5
1A5E
100
AcDbEntity
  8
3
100
AcDbCircle
 10
146.307
 20
231.412878
 30
0.0
 40
1.221159
100
AcDbArc
 50
347.671912
 51
87.091888
  0
ARC
  5
1A5F
100
AcDbEntity
  8
3
100
AcDbCircle
 10
159.859485
 20
222.666273
 30
0.0
 40
9.127236
100
AcDbArc
 50
25.021368
 51
125.532367
  0
ARC
  5
1A60
100
AcDbEntity
  8
3
100
AcDbCircle
 10
226.63826
 20
115.797894
 30
0.0
 40
9.127236
100
AcDbArc
 50
298.467633
 51
38.978632
  0
ARC
  5
1A61
100
AcDbEntity
  8
2
100
AcDbCircle
 10
336.431126
 20
113.65247
 30
0.0
 40
5.887192
100
AcDbArc
 50
25.413359
 51
154.586641
  0
LINE
  5
1A62
100
AcDbEntity
  8
3
100
AcDbLine
 10
364.0
 20
133.771453
 30
0.0
 11
364.0
 21
112.771453
 31
0.0
  0
LINE
  5
1A63
100
AcDbEntity
  8
3
100
AcDbLine
 10
347.0
 20
109.771453
 30
0.0
 11
347.0
 21
133.771453
 31
0.0
  0
LINE
  5
1A64
100
AcDbEntity
  8
3
100
AcDbLine
 10
324.0
 20
133.771453
 30
0.0
 11
324.0
 21
109.771453
 31
0.0
  0
LINE
  5
1A65
100
AcDbEntity
  8
3
100
AcDbLine
 10
322.0
 20
22.271453
 30
0.0
 11
322.0
 21
133.771453
 31
0.0
  0
LINE
  5
1A66
100
AcDbEntity
  8
1
100
AcDbLine
 10
335.5
 20
266.771453
 30
0.0
 11
335.5
 21
3.271453
 31
0.0
  0
ARC
  5
1A67
100
AcDbEntity
  8
3
100
AcDbCircle
 10
335.5
 20
22.271453
 30
0.0
 40
13.5
100
AcDbArc
 50
180.0
 51
0.0
  0
ARC
  5
1A68
100
AcDbEntity
  8
3
100
AcDbCircle
 10
136.5
 20
133.771453
 30
0.0
 40
98.0
100
AcDbArc
 50
339.383439
 51
344.616561
  0
LINE
  5
1A69
100
AcDbEntity
  8
3
100
AcDbLine
 10
340.970899
 20
55.489374
 30
0.0
 11
342.798127
 21
104.790484
 31
0.0
  0
LINE
  5
1A6A
100
AcDbEntity
  8
3
100
AcDbLine
 10
330.029102
 20
55.489374
 30
0.0
 11
330.029102
 21
104.849231
 31
0.0
  0
LINE
  5
1A6B
100
AcDbEntity
  8
3
100
AcDbLine
 10
349.0
 20
70.784158
 30
0.0
 11
349.0
 21
22.271453
 31
0.0
  0
ARC
  5
1A6C
100
AcDbEntity
  8
3
100
AcDbCircle
 10
335.474829
 20
53.848432
 30
0.0
 40
5.325314
100
AcDbArc
 50
270.270827
 51
324.76648
  0
LINE
  5
1A6D
100
AcDbEntity
  8
1
100
AcDbLine
 10
326.5
 20
22.271453
 30
0.0
 11
344.5
 21
22.271453
 31
0.0
  0
ARC
  5
1A6E
100
AcDbEntity
  8
3
100
AcDbCircle
 10
335.5
 20
26.771453
 30
0.0
 40
9.0
100
AcDbArc
 50
7.227238
 51
172.772762
  0
LINE
  5
1A6F
100
AcDbEntity
  8
1
100
AcDbLine
 10
329.0
 20
26.771453
 30
0.0
 11
342.5
 21
26.771453
 31
0.0
  0
ARC
  5
1A70
100
AcDbEntity
  8
3
100
AcDbCircle
 10
317.890454
 20
30.278426
 30
0.0
 40
9.0
100
AcDbArc
 50
297.168978
 51
352.772762
  0
ARC
  5
1A71
100
AcDbEntity
  8
3
100
AcDbCircle
 10
338.27641
 20
54.999257
 30
0.0
 40
8.261858
100
AcDbArc
 50
176.599052
 51
210.740497
  0
ARC
  5
1A72
100
AcDbEntity
  8
3
100
AcDbCircle
 10
335.525172
 20
53.848432
 30
0.0
 40
5.325314
100
AcDbArc
 50
215.23352
 51
269.729173
  0
ARC
  5
1A73
100
AcDbEntity
  8
3
100
AcDbCircle
 10
353.109547
 20
30.278426
 30
0.0
 40
9.0
100
AcDbArc
 50
187.227238
 51
242.831022
  0
ARC
  5
1A74
100
AcDbEntity
  8
3
100
AcDbCircle
 10
332.723591
 20
54.999257
 30
0.0
 40
8.261858
100
AcDbArc
 50
329.259503
 51
3.400948
  0
ARC
  5
1A75
100
AcDbEntity
  8
2
100
AcDbCircle
 10
336.431126
 20
110.193959
 30
0.0
 40
5.937516
100
AcDbArc
 50
206.416996
 51
333.583004
  0
ARC
  5
1A76
100
AcDbEntity
  8
3
100
AcDbCircle
 10
336.5
 20
123.596392
 30
0.0
 40
19.832513
100
AcDbArc
 50
238.032802
 51
301.967198
  0
LINE
  5
1A77
100
AcDbEntity
  8
3
100
AcDbLine
 10
326.0
 20
106.771453
 30
0.0
 11
324.0
 21
109.771453
 31
0.0
  0
LINE
  5
1A78
100
AcDbEntity
  8
2
100
AcDbLine
 10
330.029102
 20
104.849231
 30
0.0
 11
329.8012
 21
111.222188
 31
0.0
  0
ARC
  5
1A79
100
AcDbEntity
  8
2
100
AcDbCircle
 10
338.734563
 20
111.865643
 30
0.0
 40
8.756908
100
AcDbArc
 50
150.491111
 51
209.508889
  0
LINE
  5
1A7A
100
AcDbEntity
  8
3
100
AcDbLine
 10
349.0
 20
70.784158
 30
0.0
 11
349.0
 21
109.771453
 31
0.0
  0
LINE
  5
1A7B
100
AcDbEntity
  8
3
100
AcDbLine
 10
361.0
 20
109.771453
 30
0.0
 11
347.0
 21
109.771453
 31
0.0
  0
LINE
  5
1A7C
100
AcDbEntity
  8
2
100
AcDbLine
 10
342.798127
 20
104.790484
 30
0.0
 11
343.041721
 21
111.503765
 31
0.0
  0
ARC
  5
1A7D
100
AcDbEntity
  8
2
100
AcDbCircle
 10
334.830758
 20
111.865643
 30
0.0
 40
8.152401
100
AcDbArc
 50
328.056536
 51
31.943464
  0
LINE
  5
1A7E
100
AcDbEntity
  8
3
100
AcDbLine
 10
347.0
 20
109.771453
 30
0.0
 11
347.0
 21
106.771453
 31
0.0
  0
ARC
  5
1A7F
100
AcDbEntity
  8
3
100
AcDbCircle
 10
361.0
 20
112.771453
 30
0.0
 40
3.0
100
AcDbArc
 50
270.0
 51
0.0
  0
LINE
  5
1A80
100
AcDbEntity
  8
3
100
AcDbLine
 10
341.075831
 20
228.29041
 30
0.0
 11
343.0
 21
163.001135
 31
0.0
  0
LINE
  5
1A81
100
AcDbEntity
  8
3
100
AcDbLine
 10
329.92008
 20
228.001445
 30
0.0
 11
330.0
 21
163.001135
 31
0.0
  0
LINE
  5
1A82
100
AcDbEntity
  8
3
100
AcDbLine
 10
349.0
 20
209.868186
 30
0.0
 11
349.0
 21
245.271453
 31
0.0
  0
LINE
  5
1A83
100
AcDbEntity
  8
3
100
AcDbLine
 10
322.0
 20
245.271453
 30
0.0
 11
322.0
 21
133.771453
 31
0.0
  0
ARC
  5
1A84
100
AcDbEntity
  8
3
100
AcDbCircle
 10
185.378719
 20
149.653111
 30
0.0
 40
48.48197
100
AcDbArc
 50
6.254827
 51
29.745173
  0
ARC
  5
1A85
100
AcDbEntity
  8
3
100
AcDbCircle
 10
228.262476
 20
139.025273
 30
0.0
 40
9.127236
100
AcDbArc
 50
313.021368
 51
53.532367
  0
ARC
  5
1A86
100
AcDbEntity
  8
3
100
AcDbCircle
 10
136.5
 20
133.771453
 30
0.0
 40
98.0
100
AcDbArc
 50
352.829705
 51
359.170295
  0
ARC
  5
1A87
100
AcDbEntity
  8
3
100
AcDbCircle
 10
136.5
 20
133.771453
 30
0.0
 40
98.0
100
AcDbArc
 50
7.383439
 51
11.55526
  0
ARC
  5
1A88
100
AcDbEntity
  8
3
100
AcDbCircle
 10
232.393044
 20
154.617302
 30
0.0
 40
1.221159
100
AcDbArc
 50
275.671912
 51
15.091888
  0
LINE
  5
1A89
100
AcDbEntity
  8
3
100
AcDbLine
 10
349.0
 20
209.868186
 30
0.0
 11
349.0
 21
157.271453
 31
0.0
  0
ARC
  5
1A8A
100
AcDbEntity
  8
3
100
AcDbCircle
 10
336.5
 20
143.946514
 30
0.0
 40
19.832513
100
AcDbArc
 50
58.032802
 51
121.967198
  0
LINE
  5
1A8B
100
AcDbEntity
  8
1
100
AcDbLine
 10
315.5
 20
133.771453
 30
0.0
 11
370.331034
 21
133.771453
 31
0.0
  0
ARC
  5
1A8C
100
AcDbEntity
  8
2
100
AcDbCircle
 10
336.5
 20
149.406467
 30
0.0
 40
5.083617
100
AcDbArc
 50
27.724279
 51
152.275721
  0
ARC
  5
1A8D
100
AcDbEntity
  8
2
100
AcDbCircle
 10
336.5
 20
134.632119
 30
0.0
 40
4.869505
100
AcDbArc
 50
202.464186
 51
337.535814
  0
ARC
  5
1A8E
100
AcDbEntity
  8
2
100
AcDbCircle
 10
353.5
 20
142.271453
 30
0.0
 40
23.505319
100
AcDbArc
 50
156.16126
 51
203.83874
  0
LINE
  5
1A8F
100
AcDbEntity
  8
3
100
AcDbLine
 10
324.0
 20
133.771453
 30
0.0
 11
324.0
 21
157.771453
 31
0.0
  0
LINE
  5
1A90
100
AcDbEntity
  8
3
100
AcDbLine
 10
326.0
 20
160.771453
 30
0.0
 11
324.0
 21
157.771453
 31
0.0
  0
LINE
  5
1A91
100
AcDbEntity
  8
3
100
AcDbLine
 10
330.0
 20
163.001135
 30
0.0
 11
330.0
 21
162.306214
 31
0.0
  0
ARC
  5
1A92
100
AcDbEntity
  8
2
100
AcDbCircle
 10
319.5
 20
142.271453
 30
0.0
 40
23.505319
100
AcDbArc
 50
336.16126
 51
23.83874
  0
LINE
  5
1A93
100
AcDbEntity
  8
3
100
AcDbLine
 10
347.0
 20
157.771453
 30
0.0
 11
347.0
 21
133.771453
 31
0.0
  0
LINE
  5
1A94
100
AcDbEntity
  8
3
100
AcDbLine
 10
364.0
 20
133.771453
 30
0.0
 11
364.0
 21
154.771453
 31
0.0
  0
LINE
  5
1A95
100
AcDbEntity
  8
3
100
AcDbLine
 10
361.0
 20
157.771453
 30
0.0
 11
347.0
 21
157.771453
 31
0.0
  0
LINE
  5
1A96
100
AcDbEntity
  8
3
100
AcDbLine
 10
347.0
 20
157.771453
 30
0.0
 11
347.0
 21
160.771453
 31
0.0
  0
LINE
  5
1A97
100
AcDbEntity
  8
3
100
AcDbLine
 10
347.0
 20
157.771453
 30
0.0
 11
347.0
 21
160.771453
 31
0.0
  0
ARC
  5
1A98
100
AcDbEntity
  8
3
100
AcDbCircle
 10
361.0
 20
154.771453
 30
0.0
 40
3.0
100
AcDbArc
 50
0.0
 51
90.0
  0
LINE
  5
1A99
100
AcDbEntity
  8
1
100
AcDbLine
 10
328.0
 20
245.271453
 30
0.0
 11
342.0
 21
245.271453
 31
0.0
  0
ARC
  5
1A9A
100
AcDbEntity
  8
3
100
AcDbCircle
 10
335.5
 20
245.271453
 30
0.0
 40
13.5
100
AcDbArc
 50
0.0
 51
180.0
  0
LINE
  5
1A9B
100
AcDbEntity
  8
3
100
AcDbLine
 10
322.0
 20
228.771453
 30
0.0
 11
329.92008
 21
228.001445
 31
0.0
  0
LINE
  5
1A9C
100
AcDbEntity
  8
3
100
AcDbLine
 10
345.0
 20
229.271453
 30
0.0
 11
345.0
 21
242.271453
 31
0.0
  0
LINE
  5
1A9D
100
AcDbEntity
  8
3
100
AcDbLine
 10
345.0
 20
229.271453
 30
0.0
 11
341.075831
 21
228.29041
 31
0.0
  0
ARC
  5
1A9E
100
AcDbEntity
  8
3
100
AcDbCircle
 10
364.25
 20
220.771453
 30
0.0
 40
28.858491
100
AcDbArc
 50
121.900157
 51
131.839638
  0
ENDBLK
  5
1AA0
100
AcDbEntity
  8
0
100
AcDbBlockEnd
  0
BLOCK
  5
1B9B
100
AcDbEntity
  8
0
100
AcDbBlockBegin
  2
A$C598D1D97
 70
     0
 10
0.0
 20
0.0
 30
0.0
  3
A$C598D1D97
  1

  0
ARC
  5
1B91
100
AcDbEntity
  8
3
100
AcDbCircle
 10
31.91074
 20
44.986498
 30
0.0
 40
44.986523
100
AcDbArc
 50
230.009297
 51
294.406546
  0
LINE
  5
1B92
100
AcDbEntity
  8
1
100
AcDbLine
 10
73.889553
 20
12.52013
 30
0.0
 11
105.867076
 21
12.52013
 31
0.0
  0
LINE
  5
1B93
100
AcDbEntity
  8
1
100
AcDbLine
 10
73.889553
 20
12.52013
 30
0.0
 11
-0.000001
 21
12.52013
 31
0.0
  0
ARC
  5
1B94
100
AcDbEntity
  8
3
100
AcDbCircle
 10
31.91074
 20
-19.946238
 30
0.0
 40
44.986523
100
AcDbArc
 50
65.593454
 51
129.990703
  0
ARC
  5
1B95
100
AcDbEntity
  8
3
100
AcDbCircle
 10
4.499553
 20
12.52013
 30
0.0
 40
2.5
100
AcDbArc
 50
126.869898
 51
233.130102
  0
ARC
  5
1B96
100
AcDbEntity
  8
3
100
AcDbCircle
 10
62.00123
 20
53.092277
 30
0.0
 40
34.072148
100
AcDbArc
 50
250.271208
 51
287.064353
  0
ARC
  5
1B97
100
AcDbEntity
  8
3
100
AcDbCircle
 10
62.00123
 20
-28.052018
 30
0.0
 40
34.072148
100
AcDbArc
 50
72.935647
 51
109.728792
  0
LINE
  5
1B98
100
AcDbEntity
  8
3
100
AcDbLine
 10
71.999553
 20
4.52013
 30
0.0
 11
71.999553
 21
20.52013
 31
0.0
  0
LINE
  5
1B99
100
AcDbEntity
  8
3
100
AcDbLine
 10
79.999553
 20
4.52013
 30
0.0
 11
71.999553
 21
4.52013
 31
0.0
  0
LINE
  5
1B9A
100
AcDbEntity
  8
3
100
AcDbLine
 10
71.999553
 20
20.52013
 30
0.0
 11
80.545101
 21
20.52013
 31
0.0
  0
ENDBLK
  5
1B9C
100
AcDbEntity
  8
0
100
AcDbBlockEnd
  0
BLOCK
  5
1C53
100
AcDbEntity
  8
0
100
AcDbBlockBegin
  2
A$C46616D22
 70
     0
 10
0.0
 20
0.0
 30
0.0
  3
A$C46616D22
  1

  0
TEXT
  5
1BB2
100
AcDbEntity
  8
3
100
AcDbText
 10
232.039815
 20
185.416628
 30
0.0
 40
7.5
  1
S/SN-315
 50
18.0
 41
0.7
  7
BIGFONT
100
AcDbText
  0
ARC
  5
1BB3
100
AcDbEntity
  8
3
100
AcDbCircle
 10
166.0
 20
168.324892
 30
0.0
 40
128.5
100
AcDbArc
 50
40.013755
 51
43.986245
  0
ARC
  5
1BB4
100
AcDbEntity
  8
3
100
AcDbCircle
 10
166.0
 20
168.324892
 30
0.0
 40
128.5
100
AcDbArc
 50
311.806394
 51
319.986245
  0
LINE
  5
1BB5
100
AcDbEntity
  8
3
100
AcDbLine
 10
291.600972
 20
195.466112
 30
0.0
 11
200.710303
 21
163.831019
 31
0.0
  0
LINE
  5
1BB6
100
AcDbEntity
  8
3
100
AcDbLine
 10
283.56653
 20
220.193582
 30
0.0
 11
191.439793
 21
192.362715
 31
0.0
  0
ARC
  5
1BB7
100
AcDbEntity
  8
3
100
AcDbCircle
 10
166.0
 20
168.324892
 30
0.0
 40
143.0
100
AcDbArc
 50
98.448836
 51
90.0
  0
CIRCLE
  5
1BB8
100
AcDbEntity
  8
3
100
AcDbCircle
 10
166.0
 20
168.324892
 30
0.0
 40
157.5
  0
LINE
  5
1BB9
100
AcDbEntity
  8
1
100
AcDbLine
 10
166.0
 20
168.324892
 30
0.0
 11
265.220993
 21
31.75891
 31
0.0
  0
LINE
  5
1BBA
100
AcDbEntity
  8
1
100
AcDbLine
 10
166.0
 20
168.324892
 30
0.0
 11
328.106685
 21
220.996547
 31
0.0
  0
LINE
  5
1BBB
100
AcDbEntity
  8
1
100
AcDbLine
 10
333.499999
 20
168.324892
 30
0.0
 11
-0.000001
 21
168.324892
 31
0.0
  0
ARC
  5
1BBC
100
AcDbEntity
  8
3
100
AcDbCircle
 10
166.0
 20
168.324892
 30
0.0
 40
35.0
100
AcDbArc
 50
331.376934
 51
352.623066
  0
ARC
  5
1BBD
100
AcDbEntity
  8
3
100
AcDbCircle
 10
166.0
 20
168.324892
 30
0.0
 40
35.0
100
AcDbArc
 50
187.376934
 51
208.623066
  0
ARC
  5
1BBE
100
AcDbEntity
  8
3
100
AcDbCircle
 10
166.0
 20
168.324892
 30
0.0
 40
128.5
100
AcDbArc
 50
184.013755
 51
187.986245
  0
CIRCLE
  5
1BBF
100
AcDbEntity
  8
3
100
AcDbCircle
 10
166.0
 20
168.324892
 30
0.0
 40
28.374924
  0
LINE
  5
1BC0
100
AcDbEntity
  8
1
100
AcDbLine
 10
166.0
 20
168.324892
 30
0.0
 11
65.244694
 21
29.64711
 31
0.0
  0
LINE
  5
1BC1
100
AcDbEntity
  8
1
100
AcDbLine
 10
166.0
 20
336.324891
 30
0.0
 11
166.0
 21
0.824891
 31
0.0
  0
ARC
  5
1BC2
100
AcDbEntity
  8
3
100
AcDbCircle
 10
129.307324
 20
117.821756
 30
0.0
 40
68.190914
100
AcDbArc
 50
224.015497
 51
243.984503
  0
LINE
  5
1BC3
100
AcDbEntity
  8
3
100
AcDbLine
 10
80.339889
 20
72.540784
 30
0.0
 11
135.277343
 21
151.558307
 31
0.0
  0
ARC
  5
1BC4
100
AcDbEntity
  8
3
100
AcDbCircle
 10
69.330617
 20
98.090474
 30
0.0
 40
12.510071
100
AcDbArc
 50
170.029744
 51
261.970256
  0
ARC
  5
1BC5
100
AcDbEntity
  8
3
100
AcDbCircle
 10
166.0
 20
168.324892
 30
0.0
 40
128.5
100
AcDbArc
 50
220.013755
 51
228.193606
  0
ARC
  5
1BC6
100
AcDbEntity
  8
3
100
AcDbCircle
 10
82.006283
 20
71.431465
 30
0.0
 40
2.001864
100
AcDbArc
 50
146.348285
 51
209.71724
  0
ARC
  5
1BC7
100
AcDbEntity
  8
3
100
AcDbCircle
 10
56.840519
 20
119.723959
 30
0.0
 40
12.510071
100
AcDbArc
 50
158.029744
 51
249.970256
  0
ARC
  5
1BC8
100
AcDbEntity
  8
3
100
AcDbCircle
 10
166.0
 20
168.324892
 30
0.0
 40
128.5
100
AcDbArc
 50
196.013755
 51
199.986245
  0
ARC
  5
1BC9
100
AcDbEntity
  8
3
100
AcDbCircle
 10
49.121213
 20
143.481539
 30
0.0
 40
12.510071
100
AcDbArc
 50
146.029744
 51
237.970256
  0
ARC
  5
1BCA
100
AcDbEntity
  8
3
100
AcDbCircle
 10
166.0
 20
168.324892
 30
0.0
 40
128.5
100
AcDbArc
 50
208.013755
 51
211.986245
  0
ARC
  5
1BCB
100
AcDbEntity
  8
3
100
AcDbCircle
 10
178.490099
 20
49.489541
 30
0.0
 40
12.510071
100
AcDbArc
 50
230.029744
 51
321.970256
  0
ARC
  5
1BCC
100
AcDbEntity
  8
3
100
AcDbCircle
 10
162.305796
 20
173.409527
 30
0.0
 40
39.694886
100
AcDbArc
 50
286.193998
 51
325.806002
  0
LINE
  5
1BCD
100
AcDbEntity
  8
3
100
AcDbLine
 10
230.62567
 20
57.258367
 30
0.0
 11
172.452147
 21
133.924749
 31
0.0
  0
LINE
  5
1BCE
100
AcDbEntity
  8
3
100
AcDbLine
 10
101.37433
 20
57.258367
 30
0.0
 11
159.547853
 21
133.924749
 31
0.0
  0
ARC
  5
1BCF
100
AcDbEntity
  8
3
100
AcDbCircle
 10
129.075581
 20
54.683216
 30
0.0
 40
12.510071
100
AcDbArc
 50
206.029744
 51
297.970256
  0
ARC
  5
1BD0
100
AcDbEntity
  8
3
100
AcDbCircle
 10
166.0
 20
168.324892
 30
0.0
 40
128.5
100
AcDbArc
 50
239.806394
 51
247.986245
  0
ARC
  5
1BD1
100
AcDbEntity
  8
3
100
AcDbCircle
 10
99.804361
 20
58.500404
 30
0.0
 40
2.001864
100
AcDbArc
 50
258.28276
 51
321.651715
  0
ARC
  5
1BD2
100
AcDbEntity
  8
3
100
AcDbCircle
 10
153.509901
 20
49.489541
 30
0.0
 40
12.510071
100
AcDbArc
 50
218.029744
 51
309.970256
  0
ARC
  5
1BD3
100
AcDbEntity
  8
3
100
AcDbCircle
 10
166.0
 20
168.324892
 30
0.0
 40
128.5
100
AcDbArc
 50
256.013755
 51
259.986245
  0
ARC
  5
1BD4
100
AcDbEntity
  8
3
100
AcDbCircle
 10
166.0
 20
168.324892
 30
0.0
 40
128.5
100
AcDbArc
 50
268.013755
 51
271.986245
  0
ARC
  5
1BD5
100
AcDbEntity
  8
3
100
AcDbCircle
 10
169.694204
 20
173.409527
 30
0.0
 40
39.694886
100
AcDbArc
 50
214.193998
 51
253.806002
  0
ARC
  5
1BD6
100
AcDbEntity
  8
3
100
AcDbCircle
 10
135.748724
 20
150.219694
 30
0.0
 40
1.419184
100
AcDbArc
 50
38.395558
 51
109.399259
  0
ARC
  5
1BD7
100
AcDbEntity
  8
3
100
AcDbCircle
 10
166.0
 20
168.324892
 30
0.0
 40
35.0
100
AcDbArc
 50
259.376934
 51
280.623066
  0
ARC
  5
1BD8
100
AcDbEntity
  8
3
100
AcDbCircle
 10
158.129092
 20
133.959405
 30
0.0
 40
1.419184
100
AcDbArc
 50
358.600741
 51
69.604442
  0
ARC
  5
1BD9
100
AcDbEntity
  8
3
100
AcDbCircle
 10
173.870908
 20
133.959405
 30
0.0
 40
1.419184
100
AcDbArc
 50
110.395558
 51
181.399259
  0
LINE
  5
1BDA
100
AcDbEntity
  8
3
100
AcDbLine
 10
251.660112
 20
72.540784
 30
0.0
 11
196.722657
 21
151.558307
 31
0.0
  0
ARC
  5
1BDB
100
AcDbEntity
  8
3
100
AcDbCircle
 10
166.0
 20
168.324892
 30
0.0
 40
128.5
100
AcDbArc
 50
292.013755
 51
300.193606
  0
ARC
  5
1BDC
100
AcDbEntity
  8
3
100
AcDbCircle
 10
166.0
 20
168.324892
 30
0.0
 40
128.5
100
AcDbArc
 50
280.013755
 51
283.986245
  0
ARC
  5
1BDD
100
AcDbEntity
  8
3
100
AcDbCircle
 10
202.924419
 20
54.683216
 30
0.0
 40
12.510071
100
AcDbArc
 50
242.029744
 51
333.970256
  0
ARC
  5
1BDE
100
AcDbEntity
  8
3
100
AcDbCircle
 10
202.692676
 20
117.821756
 30
0.0
 40
68.190914
100
AcDbArc
 50
296.015497
 51
315.984503
  0
ARC
  5
1BDF
100
AcDbEntity
  8
3
100
AcDbCircle
 10
232.195639
 20
58.500404
 30
0.0
 40
2.001864
100
AcDbArc
 50
218.348285
 51
281.71724
  0
ARC
  5
1BE0
100
AcDbEntity
  8
3
100
AcDbCircle
 10
249.993717
 20
71.431465
 30
0.0
 40
2.001864
100
AcDbArc
 50
330.28276
 51
33.651715
  0
ARC
  5
1BE1
100
AcDbEntity
  8
3
100
AcDbCircle
 10
196.251276
 20
150.219694
 30
0.0
 40
1.419184
100
AcDbArc
 50
70.600741
 51
141.604442
  0
LINE
  5
1BE2
100
AcDbEntity
  8
3
100
AcDbLine
 10
48.43347
 20
220.193582
 30
0.0
 11
140.560207
 21
192.362715
 31
0.0
  0
LINE
  5
1BE3
100
AcDbEntity
  8
3
100
AcDbLine
 10
40.399028
 20
195.466112
 30
0.0
 11
131.289697
 21
163.831019
 31
0.0
  0
ARC
  5
1BE4
100
AcDbEntity
  8
3
100
AcDbCircle
 10
166.0
 20
168.324892
 30
0.0
 40
128.5
100
AcDbArc
 50
124.013755
 51
127.986245
  0
LINE
  5
1BE5
100
AcDbEntity
  8
1
100
AcDbLine
 10
94.261224
 20
247.998874
 30
0.0
 11
51.460945
 21
295.533399
 31
0.0
  0
LINE
  5
1BE6
100
AcDbEntity
  8
1
100
AcDbLine
 10
111.434337
 20
262.835392
 30
0.0
 11
81.119895
 21
315.341546
 31
0.0
  0
LINE
  5
1BE7
100
AcDbEntity
  8
1
100
AcDbLine
 10
166.0
 20
168.324892
 30
0.0
 11
4.956184
 21
220.651199
 31
0.0
  0
ARC
  5
1BE8
100
AcDbEntity
  8
3
100
AcDbCircle
 10
47.893389
 20
218.265948
 30
0.0
 40
2.001864
100
AcDbArc
 50
74.348285
 51
137.71724
  0
ARC
  5
1BE9
100
AcDbEntity
  8
3
100
AcDbCircle
 10
106.630003
 20
187.615373
 30
0.0
 40
68.190914
100
AcDbArc
 50
152.015497
 51
171.984503
  0
ARC
  5
1BEA
100
AcDbEntity
  8
3
100
AcDbCircle
 10
166.0
 20
168.324892
 30
0.0
 40
128.5
100
AcDbArc
 50
167.806394
 51
175.986245
  0
ARC
  5
1BEB
100
AcDbEntity
  8
3
100
AcDbCircle
 10
46.510071
 20
168.324892
 30
0.0
 40
12.510071
100
AcDbArc
 50
134.029744
 51
225.970256
  0
ARC
  5
1BEC
100
AcDbEntity
  8
3
100
AcDbCircle
 10
41.095128
 20
197.343053
 30
0.0
 40
2.001864
100
AcDbArc
 50
186.28276
 51
249.651715
  0
LINE
  5
1BED
100
AcDbEntity
  8
1
100
AcDbLine
 10
77.480031
 20
232.638414
 30
0.0
 11
28.44375
 21
268.265357
 31
0.0
  0
ARC
  5
1BEE
100
AcDbEntity
  8
3
100
AcDbCircle
 10
166.0
 20
168.324892
 30
0.0
 40
128.5
100
AcDbArc
 50
136.013755
 51
139.986245
  0
ARC
  5
1BEF
100
AcDbEntity
  8
3
100
AcDbCircle
 10
69.330617
 20
238.55931
 30
0.0
 40
12.510071
100
AcDbArc
 50
98.029744
 51
189.970256
  0
ARC
  5
1BF0
100
AcDbEntity
  8
3
100
AcDbCircle
 10
166.0
 20
168.324892
 30
0.0
 40
128.5
100
AcDbArc
 50
148.013755
 51
156.193606
  0
ARC
  5
1BF1
100
AcDbEntity
  8
3
100
AcDbCircle
 10
86.045632
 20
257.123214
 30
0.0
 40
12.510071
100
AcDbArc
 50
86.029744
 51
177.970256
  0
ARC
  5
1BF2
100
AcDbEntity
  8
3
100
AcDbCircle
 10
225.744964
 20
271.806205
 30
0.0
 40
12.510071
100
AcDbArc
 50
14.029744
 51
105.970256
  0
LINE
  5
1BF3
100
AcDbEntity
  8
3
100
AcDbLine
 10
153.0
 20
296.165613
 30
0.0
 11
151.0
 21
199.947668
 31
0.0
  0
LINE
  5
1BF4
100
AcDbEntity
  8
3
100
AcDbLine
 10
179.0
 20
296.165613
 30
0.0
 11
181.0
 21
199.947668
 31
0.0
  0
ARC
  5
1BF5
100
AcDbEntity
  8
3
100
AcDbCircle
 10
106.255036
 20
271.806205
 30
0.0
 40
12.510071
100
AcDbArc
 50
74.029744
 51
165.970256
  0
LINE
  5
1BF6
100
AcDbEntity
  8
1
100
AcDbLine
 10
132.349899
 20
271.889253
 30
0.0
 11
113.598578
 21
329.599885
 31
0.0
  0
ARC
  5
1BF7
100
AcDbEntity
  8
3
100
AcDbCircle
 10
166.0
 20
162.039937
 30
0.0
 40
39.694886
100
AcDbArc
 50
70.193998
 51
109.806002
  0
ARC
  5
1BF8
100
AcDbEntity
  8
3
100
AcDbCircle
 10
171.977347
 20
166.382734
 30
0.0
 40
39.694886
100
AcDbArc
 50
142.193998
 51
181.806002
  0
ARC
  5
1BF9
100
AcDbEntity
  8
3
100
AcDbCircle
 10
130.884235
 20
165.19105
 30
0.0
 40
1.419184
100
AcDbArc
 50
286.600741
 51
357.604442
  0
ARC
  5
1BFA
100
AcDbEntity
  8
3
100
AcDbCircle
 10
166.0
 20
168.324892
 30
0.0
 40
35.0
100
AcDbArc
 50
115.376934
 51
136.623066
  0
ARC
  5
1BFB
100
AcDbEntity
  8
3
100
AcDbCircle
 10
139.432775
 20
191.500751
 30
0.0
 40
1.419184
100
AcDbArc
 50
326.395558
 51
37.399259
  0
ARC
  5
1BFC
100
AcDbEntity
  8
3
100
AcDbCircle
 10
152.168172
 20
200.753558
 30
0.0
 40
1.419184
100
AcDbArc
 50
214.600741
 51
285.604442
  0
ARC
  5
1BFD
100
AcDbEntity
  8
3
100
AcDbCircle
 10
160.022653
 20
166.382734
 30
0.0
 40
39.694886
100
AcDbArc
 50
358.193998
 51
37.806002
  0
ARC
  5
1BFE
100
AcDbEntity
  8
3
100
AcDbCircle
 10
201.115765
 20
165.19105
 30
0.0
 40
1.419184
100
AcDbArc
 50
182.395558
 51
253.399259
  0
ARC
  5
1BFF
100
AcDbEntity
  8
3
100
AcDbCircle
 10
166.0
 20
168.324892
 30
0.0
 40
35.0
100
AcDbArc
 50
43.376934
 51
64.623066
  0
ARC
  5
1C00
100
AcDbEntity
  8
3
100
AcDbCircle
 10
179.831828
 20
200.753558
 30
0.0
 40
1.419184
100
AcDbArc
 50
254.395558
 51
325.399259
  0
ARC
  5
1C01
100
AcDbEntity
  8
3
100
AcDbCircle
 10
192.567225
 20
191.500751
 30
0.0
 40
1.419184
100
AcDbArc
 50
142.600741
 51
213.604442
  0
ARC
  5
1C02
100
AcDbEntity
  8
3
100
AcDbCircle
 10
166.0
 20
168.324892
 30
0.0
 40
128.5
100
AcDbArc
 50
52.013755
 51
55.986245
  0
ARC
  5
1C03
100
AcDbEntity
  8
3
100
AcDbCircle
 10
245.954368
 20
257.123214
 30
0.0
 40
12.510071
100
AcDbArc
 50
2.029744
 51
93.970256
  0
ARC
  5
1C04
100
AcDbEntity
  8
3
100
AcDbCircle
 10
166.0
 20
306.324892
 30
0.0
 40
11.0
100
AcDbArc
 50
270.0
 51
352.58668
  0
ARC
  5
1C05
100
AcDbEntity
  8
3
100
AcDbCircle
 10
166.0
 20
230.750201
 30
0.0
 40
68.190914
100
AcDbArc
 50
80.015497
 51
83.488967
  0
LINE
  5
1C06
100
AcDbEntity
  8
1
100
AcDbLine
 10
195.888637
 20
306.324892
 30
0.0
 11
136.111363
 21
306.324892
 31
0.0
  0
ARC
  5
1C07
100
AcDbEntity
  8
3
100
AcDbCircle
 10
129.075581
 20
281.966567
 30
0.0
 40
12.510071
100
AcDbArc
 50
62.029744
 51
153.970256
  0
ARC
  5
1C08
100
AcDbEntity
  8
3
100
AcDbCircle
 10
166.0
 20
168.324892
 30
0.0
 40
128.5
100
AcDbArc
 50
112.013755
 51
115.986245
  0
ARC
  5
1C09
100
AcDbEntity
  8
3
100
AcDbCircle
 10
144.364344
 20
301.527392
 30
0.0
 40
8.269256
100
AcDbArc
 50
19.856241
 51
85.663906
  0
ARC
  5
1C0A
100
AcDbEntity
  8
3
100
AcDbCircle
 10
166.0
 20
306.324892
 30
0.0
 40
14.0
100
AcDbArc
 50
188.16671
 51
270.0
  0
ARC
  5
1C0B
100
AcDbEntity
  8
3
100
AcDbCircle
 10
166.0
 20
168.324892
 30
0.0
 40
128.5
100
AcDbArc
 50
95.806394
 51
103.986245
  0
ARC
  5
1C0C
100
AcDbEntity
  8
3
100
AcDbCircle
 10
166.0
 20
230.750201
 30
0.0
 40
68.190914
100
AcDbArc
 50
99.504221
 51
99.984503
  0
ARC
  5
1C0D
100
AcDbEntity
  8
3
100
AcDbCircle
 10
155.000183
 20
296.083589
 30
0.0
 40
2.001864
100
AcDbArc
 50
114.28276
 51
177.651715
  0
ARC
  5
1C0E
100
AcDbEntity
  8
3
100
AcDbCircle
 10
166.0
 20
168.324892
 30
0.0
 40
128.5
100
AcDbArc
 50
64.013755
 51
67.986245
  0
ARC
  5
1C0F
100
AcDbEntity
  8
3
100
AcDbCircle
 10
166.0
 20
168.324892
 30
0.0
 40
128.5
100
AcDbArc
 50
76.013755
 51
84.193606
  0
ARC
  5
1C10
100
AcDbEntity
  8
3
100
AcDbCircle
 10
176.999817
 20
296.083589
 30
0.0
 40
2.001864
100
AcDbArc
 50
2.348285
 51
65.71724
  0
ARC
  5
1C11
100
AcDbEntity
  8
3
100
AcDbCircle
 10
184.507081
 20
302.440659
 30
0.0
 40
7.988816
100
AcDbArc
 50
100.284774
 51
162.028159
  0
ARC
  5
1C12
100
AcDbEntity
  8
3
100
AcDbCircle
 10
202.924419
 20
281.966567
 30
0.0
 40
12.510071
100
AcDbArc
 50
26.029744
 51
117.970256
  0
ARC
  5
1C13
100
AcDbEntity
  8
3
100
AcDbCircle
 10
166.0
 20
168.324892
 30
0.0
 40
128.5
100
AcDbArc
 50
352.013755
 51
355.986245
  0
LINE
  5
1C14
100
AcDbEntity
  8
3
100
AcDbLine
 10
450.5
 20
168.324892
 30
0.0
 11
450.5
 21
143.824892
 31
0.0
  0
LINE
  5
1C15
100
AcDbEntity
  8
3
100
AcDbLine
 10
404.5
 20
139.824892
 30
0.0
 11
404.5
 21
168.324892
 31
0.0
  0
LINE
  5
1C16
100
AcDbEntity
  8
3
100
AcDbLine
 10
402.5
 20
168.324892
 30
0.0
 11
402.5
 21
24.960286
 31
0.0
  0
LINE
  5
1C17
100
AcDbEntity
  8
1
100
AcDbLine
 10
416.984055
 20
168.108761
 30
0.0
 11
416.984055
 21
0.0
 31
0.0
  0
LINE
  5
1C18
100
AcDbEntity
  8
3
100
AcDbLine
 10
446.5
 20
139.824892
 30
0.0
 11
430.5
 21
139.824892
 31
0.0
  0
ARC
  5
1C19
100
AcDbEntity
  8
3
100
AcDbCircle
 10
417.008698
 20
29.462457
 30
0.0
 40
10.5
100
AcDbArc
 50
2.985332
 51
177.014668
  0
LINE
  5
1C1A
100
AcDbEntity
  8
3
100
AcDbLine
 10
431.5
 20
24.960286
 30
0.0
 11
431.5
 21
96.77004
 31
0.0
  0
LINE
  5
1C1B
100
AcDbEntity
  8
1
100
AcDbLine
 10
395.398413
 20
25.324892
 30
0.0
 11
435.025977
 21
25.324892
 31
0.0
  0
ARC
  5
1C1C
100
AcDbEntity
  8
3
100
AcDbCircle
 10
417.0
 20
25.469215
 30
0.0
 40
14.508929
100
AcDbArc
 50
182.010172
 51
357.989828
  0
ARC
  5
1C1D
100
AcDbEntity
  8
3
100
AcDbCircle
 10
400.555177
 20
30.630356
 30
0.0
 40
6.0
100
AcDbArc
 50
289.089008
 51
357.821003
  0
ARC
  5
1C1E
100
AcDbEntity
  8
3
100
AcDbCircle
 10
433.46222
 20
30.630356
 30
0.0
 40
6.0
100
AcDbArc
 50
182.178997
 51
250.910992
  0
ARC
  5
1C1F
100
AcDbEntity
  8
3
100
AcDbCircle
 10
262.669383
 20
98.090474
 30
0.0
 40
12.510071
100
AcDbArc
 50
278.029744
 51
9.970256
  0
ARC
  5
1C20
100
AcDbEntity
  8
3
100
AcDbCircle
 10
166.0
 20
168.324892
 30
0.0
 40
128.5
100
AcDbArc
 50
340.013755
 51
343.986245
  0
ARC
  5
1C21
100
AcDbEntity
  8
3
100
AcDbCircle
 10
275.159482
 20
119.723959
 30
0.0
 40
12.510071
100
AcDbArc
 50
290.029744
 51
21.970256
  0
ARC
  5
1C22
100
AcDbEntity
  8
3
100
AcDbCircle
 10
166.0
 20
168.324892
 30
0.0
 40
128.5
100
AcDbArc
 50
328.013755
 51
331.986245
  0
ARC
  5
1C23
100
AcDbEntity
  8
3
100
AcDbCircle
 10
282.878787
 20
143.481539
 30
0.0
 40
12.510071
100
AcDbArc
 50
302.029744
 51
33.970256
  0
LINE
  5
1C24
100
AcDbEntity
  8
3
100
AcDbLine
 10
423.65807
 20
65.656793
 30
0.0
 11
425.274334
 21
134.795689
 31
0.0
  0
LINE
  5
1C25
100
AcDbEntity
  8
3
100
AcDbLine
 10
410.622306
 20
134.730806
 30
0.0
 11
410.622306
 21
65.02468
 31
0.0
  0
ARC
  5
1C26
100
AcDbEntity
  8
3
100
AcDbCircle
 10
420.990307
 20
65.586417
 30
0.0
 40
10.383208
100
AcDbArc
 50
183.101243
 51
215.094776
  0
ARC
  5
1C27
100
AcDbEntity
  8
3
100
AcDbCircle
 10
415.099557
 20
64.767894
 30
0.0
 40
8.604551
100
AcDbArc
 50
321.823769
 51
5.929557
  0
ARC
  5
1C28
100
AcDbEntity
  8
3
100
AcDbCircle
 10
417.244791
 20
63.206644
 30
0.0
 40
5.953989
100
AcDbArc
 50
217.080193
 51
320.874774
  0
LINE
  5
1C29
100
AcDbEntity
  8
3
100
AcDbLine
 10
431.5
 20
96.77004
 30
0.0
 11
431.5
 21
139.324891
 31
0.0
  0
ARC
  5
1C2A
100
AcDbEntity
  8
2
100
AcDbCircle
 10
417.949916
 20
140.840796
 30
0.0
 40
6.916232
100
AcDbArc
 50
216.714627
 51
324.994757
  0
ARC
  5
1C2B
100
AcDbEntity
  8
2
100
AcDbCircle
 10
417.675744
 20
144.37482
 30
0.0
 40
7.190829
100
AcDbArc
 50
40.874046
 51
139.125954
  0
ARC
  5
1C2C
100
AcDbEntity
  8
3
100
AcDbCircle
 10
417.869117
 20
152.64902
 30
0.0
 40
19.328184
100
AcDbArc
 50
229.194323
 51
310.805677
  0
LINE
  5
1C2D
100
AcDbEntity
  8
2
100
AcDbLine
 10
410.622306
 20
134.730806
 30
0.0
 11
410.622306
 21
143.895055
 31
0.0
  0
ARC
  5
1C2E
100
AcDbEntity
  8
2
100
AcDbCircle
 10
422.320853
 20
143.028462
 30
0.0
 40
11.759374
100
AcDbArc
 50
149.025582
 51
212.523629
  0
LINE
  5
1C2F
100
AcDbEntity
  8
3
100
AcDbLine
 10
404.5
 20
139.824892
 30
0.0
 11
405.238234
 21
138.018932
 31
0.0
  0
LINE
  5
1C30
100
AcDbEntity
  8
2
100
AcDbLine
 10
425.274334
 20
134.795689
 30
0.0
 11
425.448558
 21
142.248492
 31
0.0
  0
ARC
  5
1C31
100
AcDbEntity
  8
2
100
AcDbCircle
 10
415.506852
 20
142.653833
 30
0.0
 40
9.957747
100
AcDbArc
 50
324.513776
 51
40.195095
  0
LINE
  5
1C32
100
AcDbEntity
  8
3
100
AcDbLine
 10
430.5
 20
138.018932
 30
0.0
 11
430.5
 21
139.824892
 31
0.0
  0
ARC
  5
1C33
100
AcDbEntity
  8
3
100
AcDbCircle
 10
446.5
 20
143.824892
 30
0.0
 40
4.0
100
AcDbArc
 50
270.0
 51
0.0
  0
LINE
  5
1C34
100
AcDbEntity
  8
3
100
AcDbLine
 10
446.5
 20
196.824892
 30
0.0
 11
430.5
 21
196.824892
 31
0.0
  0
LINE
  5
1C35
100
AcDbEntity
  8
1
100
AcDbLine
 10
393.058009
 20
305.958336
 30
0.0
 11
441.115458
 21
305.958336
 31
0.0
  0
LINE
  5
1C36
100
AcDbEntity
  8
1
100
AcDbLine
 10
454.871002
 20
168.324892
 30
0.0
 11
394.26525
 21
168.324892
 31
0.0
  0
LINE
  5
1C37
100
AcDbEntity
  8
3
100
AcDbLine
 10
423.569582
 20
294.740673
 30
0.0
 11
425.484055
 21
201.149577
 31
0.0
  0
LINE
  5
1C38
100
AcDbEntity
  8
3
100
AcDbLine
 10
410.484055
 20
291.768626
 30
0.0
 11
410.484055
 21
202.286592
 31
0.0
  0
LINE
  5
1C39
100
AcDbEntity
  8
3
100
AcDbLine
 10
431.5
 20
311.689497
 30
0.0
 11
431.5
 21
262.107908
 31
0.0
  0
LINE
  5
1C3A
100
AcDbEntity
  8
3
100
AcDbLine
 10
402.5
 20
168.324892
 30
0.0
 11
402.5
 21
311.689497
 31
0.0
  0
LINE
  5
1C3B
100
AcDbEntity
  8
1
100
AcDbLine
 10
417.0
 20
329.189497
 30
0.0
 11
417.0
 21
166.189497
 31
0.0
  0
ARC
  5
1C3C
100
AcDbEntity
  8
3
100
AcDbCircle
 10
284.106611
 20
218.265948
 30
0.0
 40
2.001864
100
AcDbArc
 50
42.28276
 51
105.651715
  0
ARC
  5
1C3D
100
AcDbEntity
  8
3
100
AcDbCircle
 10
166.0
 20
168.324892
 30
0.0
 40
128.5
100
AcDbArc
 50
4.013755
 51
12.193606
  0
ARC
  5
1C3E
100
AcDbEntity
  8
3
100
AcDbCircle
 10
285.489929
 20
168.324892
 30
0.0
 40
12.510071
100
AcDbArc
 50
314.029744
 51
45.970256
  0
ARC
  5
1C3F
100
AcDbEntity
  8
3
100
AcDbCircle
 10
225.369997
 20
187.615373
 30
0.0
 40
68.190914
100
AcDbArc
 50
8.015497
 51
27.984503
  0
ARC
  5
1C40
100
AcDbEntity
  8
3
100
AcDbCircle
 10
290.904872
 20
197.343053
 30
0.0
 40
2.001864
100
AcDbArc
 50
290.348285
 51
353.71724
  0
ARC
  5
1C41
100
AcDbEntity
  8
3
100
AcDbCircle
 10
262.669383
 20
238.55931
 30
0.0
 40
12.510071
100
AcDbArc
 50
350.029744
 51
81.970256
  0
ARC
  5
1C42
100
AcDbEntity
  8
3
100
AcDbCircle
 10
166.0
 20
168.324892
 30
0.0
 40
128.5
100
AcDbArc
 50
23.806394
 51
31.986245
  0
LINE
  5
1C43
100
AcDbEntity
  8
3
100
AcDbLine
 10
431.5
 20
262.107908
 30
0.0
 11
431.5
 21
196.824892
 31
0.0
  0
ARC
  5
1C44
100
AcDbEntity
  8
2
100
AcDbCircle
 10
426.838784
 20
180.184016
 30
0.0
 40
16.824351
100
AcDbArc
 50
145.493586
 51
213.318413
  0
ARC
  5
1C45
100
AcDbEntity
  8
2
100
AcDbCircle
 10
406.454554
 20
179.93773
 30
0.0
 40
18.489563
100
AcDbArc
 50
330.889156
 51
32.637345
  0
LINE
  5
1C46
100
AcDbEntity
  8
3
100
AcDbLine
 10
404.5
 20
196.824892
 30
0.0
 11
404.5
 21
168.324892
 31
0.0
  0
ARC
  5
1C47
100
AcDbEntity
  8
2
100
AcDbCircle
 10
417.694177
 20
174.239615
 30
0.0
 40
5.91789
100
AcDbArc
 50
213.857981
 51
326.142019
  0
ARC
  5
1C48
100
AcDbEntity
  8
3
100
AcDbCircle
 10
417.869117
 20
184.000763
 30
0.0
 40
19.328184
100
AcDbArc
 50
49.194323
 51
130.805677
  0
ARC
  5
1C49
100
AcDbEntity
  8
2
100
AcDbCircle
 10
417.558463
 20
187.071353
 30
0.0
 40
5.291678
100
AcDbArc
 50
32.435167
 51
150.027583
  0
LINE
  5
1C4A
100
AcDbEntity
  8
3
100
AcDbLine
 10
404.5
 20
196.824892
 30
0.0
 11
405.238234
 21
198.630851
 31
0.0
  0
LINE
  5
1C4B
100
AcDbEntity
  8
3
100
AcDbLine
 10
430.5
 20
198.630851
 30
0.0
 11
430.5
 21
196.824892
 31
0.0
  0
ARC
  5
1C4C
100
AcDbEntity
  8
3
100
AcDbCircle
 10
417.0
 20
311.180569
 30
0.0
 40
14.508929
100
AcDbArc
 50
2.010172
 51
177.989828
  0
LINE
  5
1C4D
100
AcDbEntity
  8
3
100
AcDbLine
 10
402.5
 20
292.324892
 30
0.0
 11
410.484055
 21
291.768626
 31
0.0
  0
LINE
  5
1C4E
100
AcDbEntity
  8
3
100
AcDbLine
 10
427.466558
 20
306.247556
 30
0.0
 11
427.466558
 21
295.948062
 31
0.0
  0
LINE
  5
1C4F
100
AcDbEntity
  8
3
100
AcDbLine
 10
427.466558
 20
295.948062
 30
0.0
 11
423.569582
 21
294.740673
 31
0.0
  0
ARC
  5
1C50
100
AcDbEntity
  8
3
100
AcDbCircle
 10
433.46222
 20
306.019427
 30
0.0
 40
6.0
100
AcDbArc
 50
109.089008
 51
177.821003
  0
LINE
  5
1C51
100
AcDbEntity
  8
3
100
AcDbLine
 10
450.5
 20
168.324892
 30
0.0
 11
450.5
 21
192.824892
 31
0.0
  0
ARC
  5
1C52
100
AcDbEntity
  8
3
100
AcDbCircle
 10
446.5
 20
192.824892
 30
0.0
 40
4.0
100
AcDbArc
 50
0.0
 51
90.0
  0
ENDBLK
  5
1C54
100
AcDbEntity
  8
0
100
AcDbBlockEnd
  0
BLOCK
  5
1D41
100
AcDbEntity
  8
0
100
AcDbBlockBegin
  2
A$C41B945FE
 70
     0
 10
0.0
 20
0.0
 30
0.0
  3
A$C41B945FE
  1

  0
ARC
  5
1D33
100
AcDbEntity
  8
3
100
AcDbCircle
 10
43.048395
 20
-20.095683
 30
0.0
 40
52.219807
100
AcDbArc
 50
63.314426
 51
131.421677
  0
ARC
  5
1D34
100
AcDbEntity
  8
3
100
AcDbCircle
 10
43.048395
 20
52.219492
 30
0.0
 40
52.219807
100
AcDbArc
 50
228.578323
 51
296.685574
  0
LINE
  5
1D35
100
AcDbEntity
  8
1
100
AcDbLine
 10
0.0
 20
16.061905
 30
0.0
 11
146.0
 21
16.061905
 31
0.0
  0
ARC
  5
1D36
100
AcDbEntity
  8
3
100
AcDbCircle
 10
9.75
 20
16.061905
 30
0.0
 40
3.25
100
AcDbArc
 50
112.619865
 51
247.380135
  0
ARC
  5
1D37
100
AcDbEntity
  8
3
100
AcDbCircle
 10
82.839286
 20
-46.22381
 30
0.0
 40
54.302233
100
AcDbArc
 50
74.336707
 51
107.511384
  0
ARC
  5
1D38
100
AcDbEntity
  8
3
100
AcDbCircle
 10
82.839286
 20
78.347619
 30
0.0
 40
54.302233
100
AcDbArc
 50
252.488616
 51
285.663293
  0
LINE
  5
1D39
100
AcDbEntity
  8
3
100
AcDbLine
 10
100.5
 20
26.061905
 30
0.0
 11
100.5
 21
6.061905
 31
0.0
  0
LINE
  5
1D3A
100
AcDbEntity
  8
3
100
AcDbLine
 10
100.5
 20
6.061905
 30
0.0
 11
111.5
 21
6.061905
 31
0.0
  0
LINE
  5
1D3B
100
AcDbEntity
  8
3
100
AcDbLine
 10
100.5
 20
6.061905
 30
0.0
 11
97.5
 21
6.061905
 31
0.0
  0
LINE
  5
1D3C
100
AcDbEntity
  8
3
100
AcDbLine
 10
113.5
 20
11.061905
 30
0.0
 11
100.5
 21
11.061905
 31
0.0
  0
LINE
  5
1D3D
100
AcDbEntity
  8
3
100
AcDbLine
 10
113.5
 20
21.061905
 30
0.0
 11
100.5
 21
21.061905
 31
0.0
  0
LINE
  5
1D3E
100
AcDbEntity
  8
3
100
AcDbLine
 10
105.0
 20
26.061905
 30
0.0
 11
100.5
 21
26.061905
 31
0.0
  0
LINE
  5
1D3F
100
AcDbEntity
  8
3
100
AcDbLine
 10
100.5
 20
26.061905
 30
0.0
 11
97.5
 21
26.061905
 31
0.0
  0
LINE
  5
1D40
100
AcDbEntity
  8
3
100
AcDbLine
 10
113.5
 20
26.061905
 30
0.0
 11
105.0
 21
26.061905
 31
0.0
  0
ENDBLK
  5
1D42
100
AcDbEntity
  8
0
100
AcDbBlockEnd
  0
BLOCK
  5
1D70
100
AcDbEntity
  8
0
100
AcDbBlockBegin
  2
A$C62DD5C26
 70
     0
 10
0.0
 20
0.0
 30
0.0
  3
A$C62DD5C26
  1

  0
LINE
  5
1D64
100
AcDbEntity
  8
1
100
AcDbLine
 10
0.000001
 20
15.499464
 30
0.0
 11
155.000001
 21
15.499464
 31
0.0
  0
ARC
  5
1D65
100
AcDbEntity
  8
3
100
AcDbCircle
 10
47.313108
 20
52.93393
 30
0.0
 40
52.934796
100
AcDbArc
 50
228.155924
 51
292.417574
  0
ARC
  5
1D66
100
AcDbEntity
  8
3
100
AcDbCircle
 10
47.115672
 20
-22.422177
 30
0.0
 40
53.923011
100
AcDbArc
 50
67.788506
 51
130.633547
  0
ARC
  5
1D67
100
AcDbEntity
  8
3
100
AcDbCircle
 10
18.000001
 20
15.999464
 30
0.0
 40
6.5
100
AcDbArc
 50
157.380135
 51
202.619865
  0
ARC
  5
1D68
100
AcDbEntity
  8
3
100
AcDbCircle
 10
84.73196
 20
-31.04435
 30
0.0
 40
39.051368
100
AcDbArc
 50
69.355881
 51
116.184551
  0
ARC
  5
1D69
100
AcDbEntity
  8
3
100
AcDbCircle
 10
84.725001
 20
62.399464
 30
0.0
 40
38.919283
100
AcDbArc
 50
243.731219
 51
290.72835
  0
LINE
  5
1D6A
100
AcDbEntity
  8
3
100
AcDbLine
 10
105.000001
 20
10.499464
 30
0.0
 11
116.500001
 21
10.499464
 31
0.0
  0
LINE
  5
1D6B
100
AcDbEntity
  8
3
100
AcDbLine
 10
105.000001
 20
20.499464
 30
0.0
 11
116.500001
 21
20.499464
 31
0.0
  0
LINE
  5
1D6C
100
AcDbEntity
  8
3
100
AcDbLine
 10
98.500001
 20
25.999464
 30
0.0
 11
117.000001
 21
25.999464
 31
0.0
  0
LINE
  5
1D6D
100
AcDbEntity
  8
3
100
AcDbLine
 10
116.500001
 20
5.499464
 30
0.0
 11
98.500001
 21
5.499464
 31
0.0
  0
LINE
  5
1D6E
100
AcDbEntity
  8
3
100
AcDbLine
 10
105.000001
 20
25.999464
 30
0.0
 11
105.000001
 21
5.499464
 31
0.0
  0
LINE
  5
1D6F
100
AcDbEntity
  8
3
100
AcDbLine
 10
98.500001
 20
5.499464
 30
0.0
 11
98.500001
 21
25.999464
 31
0.0
  0
ENDBLK
  5
1D71
100
AcDbEntity
  8
0
100
AcDbBlockEnd
  0
ENDSEC
  0
SECTION
  2
ENTITIES
  0
INSERT
  5
F8
100
AcDbEntity
  8
ASHADE
 62
     1
100
AcDbBlockReference
  2
AVE_RENDER
 10
0.0
 20
0.0
 30
0.0
1001
AVE_RENDER
1002
{
1070
     2
1000
Pref
1070
    30
1070
    20
1070
     0
1070
     0
1000

1070
    10
1070
     0
1070
    30
1040
1.0
1070
     1
1040
0.3
1040
0.7
1040
0.0
1040
10.0
1010
-1.0
1020
-1.0
1030
-1.0
1040
0.3
1070
    49
1002
}
  0
INSERT
  5
F9
100
AcDbEntity
  8
ASHADE
 62
     3
100
AcDbBlockReference
  2
AVE_RENDER
 10
0.0
 20
0.0
 30
0.0
1001
AVE_RENDER
1002
{
1070
     0
1000
Full Opt
1070
     0
1070
     1
1070
     1
1070
     1
1070
     0
1070
     0
1070
     0
1070
     1
1070
     1
1040
0.0001
1040
0.0001
1002
}
  0
INSERT
  5
FA
100
AcDbEntity
  8
ASHADE
 62
     4
100
AcDbBlockReference
  2
AVE_RENDER
 10
0.0
 20
0.0
 30
0.0
1001
AVE_RENDER
1002
{
1070
     0
1000
Quick Opt
1070
     0
1070
     1
1070
     1
1070
     1
1070
     0
1070
     0
1070
     1
1002
}
  0
HATCH
  5
EAE
100
AcDbEntity
  8
0
  6
CONTINUOUS
100
AcDbHatch
 10
0.0
 20
0.0
 30
0.0
210
0.0
220
0.0
230
1.0
  2
ANSI31
 70
     0
 71
     0
 91
        7
 92
        7
 72
     1
 73
     1
 93
       12
 10
262.9999999999999
 20
165.0
 42
0.0
 10
241.5
 20
165.0
 42
0.0
 10
241.5
 20
163.7746552230707
 42
-0.2721596082980698
 10
244.6483072701649
 20
161.9253196319411
 42
-0.2498418479505638
 10
244.6996602578422
 20
149.4072238118318
 42
-0.1759538270673097
 10
242.9022995188798
 20
147.7399432486012
 42
-0.0620936201109865
 10
241.5
 20
147.0422796021932
 42
0.0
 10
241.5
 20
144.026247578633
 42
0.1293808649254978
 10
251.0
 20
145.9999999999999
 42
0.0
 10
251.0
 20
147.5
 42
0.0
 10
261.5
 20
147.5
 42
0.4142135623730951
 10
262.9999999999999
 20
149.0
 42
0.0
 97
        0
 92
        7
 72
     1
 73
     1
 93
        6
 10
241.5
 20
165.0
 42
0.0
 10
233.9999999999999
 20
165.0
 42
0.0
 10
233.9999999999999
 20
157.270011778561
 42
0.0
 10
236.6619141878134
 20
160.1511255403871
 42
0.050659441681317
 10
238.5765144498573
 20
162.2754545881572
 42
-0.241277940474536
 10
241.5
 20
163.7746552230707
 42
0.0
 97
        0
 92
        7
 72
     1
 73
     1
 93
       14
 10
234.9999999999999
 20
145.5374063839876
 42
0.0324315232587184
 10
237.3292764512209
 20
144.7146793056477
 42
0.0
 10
239.419485842388
 20
146.1124462100204
 42
-0.0752527437237129
 10
241.0740288351336
 20
146.9094008113962
 42
0.0176274973545809
 10
241.5
 20
147.0422796021932
 42
0.0
 10
241.5
 20
147.4571250920255
 42
-0.2754795702407734
 10
238.3436837383937
 20
149.3453779418196
 42
0.0009565591874279
 10
238.367537992075
 20
149.3018123963288
 42
0.271762934324019
 10
241.5
 20
147.4571250920255
 42
0.0
 10
241.5
 20
163.7746552230707
 42
0.2375528082741129
 10
238.6064440578731
 20
162.3164614724272
 42
-0.0515587960841011
 10
236.6619141878135
 20
160.1511255403872
 42
0.0
 10
233.9999999999999
 20
157.270011778561
 42
0.0
 10
234.0
 20
147.9999999999998
 42
0.0
 97
        0
 92
        7
 72
     1
 73
     1
 93
        4
 10
244.6996602578428
 20
149.4072238118329
 42
0.2498418479505401
 10
244.6483072701649
 20
161.9253196319411
 42
0.2721596082980711
 10
241.5
 20
163.7746552230707
 42
0.0
 10
241.5
 20
147.4571250920255
 42
0.2815326192276521
 97
        0
 92
        7
 72
     1
 73
     1
 93
        4
 10
241.9999999999999
 20
102.5
 42
0.4142135623730924
 10
250.0
 20
110.4999999999999
 42
-0.231401098189398
 10
247.9791303715507
 20
112.9999999999999
 42
0.3899832787427757
 10
241.9999999999999
 20
118.5
 42
0.0
 97
        0
 92
        7
 72
     1
 73
     1
 93
        4
 10
242.0
 20
118.5
 42
0.389983278742777
 10
236.0208696284493
 20
113.0
 42
-0.2249662648716755
 10
234.0806660971535
 20
110.5388092186417
 42
0.0
 10
242.0
 20
110.5
 42
0.0
 97
        0
 92
        7
 72
     1
 73
     1
 93
        4
 10
234.0806660971535
 20
110.5388092186417
 42
-0.0061164277429119
 10
233.9999999999999
 20
110.4999999999999
 42
0.4142135623730951
 10
241.9999999999999
 20
102.4999999999999
 42
0.0
 10
242.0
 20
110.5
 42
0.0
 97
        0
 75
     0
 76
     1
 52
0.0
 41
12.0
 77
     0
 78
     1
 53
45.0
 43
0.0
 44
0.0
 45
-1.060660171779821
 46
1.060660171779821
 79
     0
 47
0.1604
 98
        7
 10
274.534263
 20
154.621809
 10
255.278408
 20
163.123022
 10
254.797012
 20
153.980208
 10
263.141216
 20
157.188213
 10
243.724896
 20
115.323752
 10
239.71326
 20
115.323752
 10
238.910933
 20
107.624541
  0
ARC
  5
1C5B
100
AcDbEntity
  8
3
100
AcDbCircle
 10
74.793333
 20
194.156343
 30
0.0
 40
143.0
100
AcDbArc
 50
98.448836
 51
270.0
  0
ARC
  5
1C5C
100
AcDbEntity
  8
3
100
AcDbCircle
 10
74.793333
 20
194.156343
 30
0.0
 40
157.5
100
AcDbArc
 50
90.0
 51
270.0
  0
ARC
  5
1C61
100
AcDbEntity
  8
3
100
AcDbCircle
 10
74.793333
 20
194.156343
 30
0.0
 40
35.0
100
AcDbArc
 50
187.376934
 51
208.623066
  0
ARC
  5
1C62
100
AcDbEntity
  8
3
100
AcDbCircle
 10
74.793333
 20
194.156343
 30
0.0
 40
128.5
100
AcDbArc
 50
184.013755
 51
187.986245
  0
ARC
  5
1C63
100
AcDbEntity
  8
3
100
AcDbCircle
 10
74.793333
 20
194.156343
 30
0.0
 40
28.374924
100
AcDbArc
 50
90.0
 51
270.0
  0
LINE
  5
1C64
100
AcDbEntity
  8
1
100
AcDbLine
 10
74.793333
 20
194.156343
 30
0.0
 11
-25.961973
 21
55.478562
 31
0.0
  0
LINE
  5
1C65
100
AcDbEntity
  8
1
100
AcDbLine
 10
74.793333
 20
362.156343
 30
0.0
 11
74.793333
 21
26.656343
 31
0.0
  0
ARC
  5
1C66
100
AcDbEntity
  8
3
100
AcDbCircle
 10
38.100657
 20
143.653207
 30
0.0
 40
68.190914
100
AcDbArc
 50
224.015497
 51
243.984503
  0
LINE
  5
1C67
100
AcDbEntity
  8
3
100
AcDbLine
 10
-10.866778
 20
98.372236
 30
0.0
 11
44.070676
 21
177.389759
 31
0.0
  0
ARC
  5
1C68
100
AcDbEntity
  8
3
100
AcDbCircle
 10
-21.87605
 20
123.921926
 30
0.0
 40
12.510071
100
AcDbArc
 50
170.029744
 51
261.970256
  0
ARC
  5
1C69
100
AcDbEntity
  8
3
100
AcDbCircle
 10
74.793333
 20
194.156343
 30
0.0
 40
128.5
100
AcDbArc
 50
220.013755
 51
228.193606
  0
ARC
  5
1C6A
100
AcDbEntity
  8
3
100
AcDbCircle
 10
-9.200384
 20
97.262916
 30
0.0
 40
2.001864
100
AcDbArc
 50
146.348285
 51
209.71724
  0
ARC
  5
1C6B
100
AcDbEntity
  8
3
100
AcDbCircle
 10
-34.366148
 20
145.555411
 30
0.0
 40
12.510071
100
AcDbArc
 50
158.029744
 51
249.970256
  0
ARC
  5
1C6C
100
AcDbEntity
  8
3
100
AcDbCircle
 10
74.793333
 20
194.156343
 30
0.0
 40
128.5
100
AcDbArc
 50
196.013755
 51
199.986245
  0
ARC
  5
1C6D
100
AcDbEntity
  8
3
100
AcDbCircle
 10
-42.085454
 20
169.31299
 30
0.0
 40
12.510071
100
AcDbArc
 50
146.029744
 51
237.970256
  0
ARC
  5
1C6E
100
AcDbEntity
  8
3
100
AcDbCircle
 10
74.793333
 20
194.156343
 30
0.0
 40
128.5
100
AcDbArc
 50
208.013755
 51
211.986245
  0
LINE
  5
1C72
100
AcDbEntity
  8
3
100
AcDbLine
 10
10.167663
 20
83.089819
 30
0.0
 11
68.341186
 21
159.756201
 31
0.0
  0
ARC
  5
1C73
100
AcDbEntity
  8
3
100
AcDbCircle
 10
37.868915
 20
80.514668
 30
0.0
 40
12.510071
100
AcDbArc
 50
206.029744
 51
297.970256
  0
ARC
  5
1C74
100
AcDbEntity
  8
3
100
AcDbCircle
 10
74.793333
 20
194.156343
 30
0.0
 40
128.5
100
AcDbArc
 50
239.806394
 51
247.986245
  0
ARC
  5
1C75
100
AcDbEntity
  8
3
100
AcDbCircle
 10
8.597694
 20
84.331856
 30
0.0
 40
2.001864
100
AcDbArc
 50
258.28276
 51
321.651715
  0
ARC
  5
1C76
100
AcDbEntity
  8
3
100
AcDbCircle
 10
62.303235
 20
75.320993
 30
0.0
 40
12.510071
100
AcDbArc
 50
218.029744
 51
309.970256
  0
ARC
  5
1C77
100
AcDbEntity
  8
3
100
AcDbCircle
 10
74.793333
 20
194.156343
 30
0.0
 40
128.5
100
AcDbArc
 50
256.013755
 51
259.986245
  0
ARC
  5
1C78
100
AcDbEntity
  8
3
100
AcDbCircle
 10
74.793333
 20
194.156343
 30
0.0
 40
128.5
100
AcDbArc
 50
268.013755
 51
270.0
  0
ARC
  5
1C79
100
AcDbEntity
  8
3
100
AcDbCircle
 10
78.487537
 20
199.240979
 30
0.0
 40
39.694886
100
AcDbArc
 50
214.193998
 51
253.806002
  0
ARC
  5
1C7A
100
AcDbEntity
  8
3
100
AcDbCircle
 10
44.542057
 20
176.051146
 30
0.0
 40
1.419184
100
AcDbArc
 50
38.395558
 51
109.399259
  0
ARC
  5
1C7B
100
AcDbEntity
  8
3
100
AcDbCircle
 10
74.793333
 20
194.156343
 30
0.0
 40
35.0
100
AcDbArc
 50
259.376934
 51
270.0
  0
ARC
  5
1C7C
100
AcDbEntity
  8
3
100
AcDbCircle
 10
66.922425
 20
159.790856
 30
0.0
 40
1.419184
100
AcDbArc
 50
358.600741
 51
69.604442
  0
LINE
  5
1C86
100
AcDbEntity
  8
3
100
AcDbLine
 10
-42.773197
 20
246.025034
 30
0.0
 11
49.35354
 21
218.194167
 31
0.0
  0
LINE
  5
1C87
100
AcDbEntity
  8
3
100
AcDbLine
 10
-50.807639
 20
221.297564
 30
0.0
 11
40.08303
 21
189.662471
 31
0.0
  0
ARC
  5
1C88
100
AcDbEntity
  8
3
100
AcDbCircle
 10
74.793333
 20
194.156343
 30
0.0
 40
128.5
100
AcDbArc
 50
124.013755
 51
127.986245
  0
LINE
  5
1C8B
100
AcDbEntity
  8
1
100
AcDbLine
 10
74.793333
 20
194.156343
 30
0.0
 11
-86.250483
 21
246.482651
 31
0.0
  0
ARC
  5
1C8C
100
AcDbEntity
  8
3
100
AcDbCircle
 10
-43.313278
 20
244.0974
 30
0.0
 40
2.001864
100
AcDbArc
 50
74.348285
 51
137.71724
  0
ARC
  5
1C8D
100
AcDbEntity
  8
3
100
AcDbCircle
 10
15.423336
 20
213.446825
 30
0.0
 40
68.190914
100
AcDbArc
 50
152.015497
 51
171.984503
  0
ARC
  5
1C8E
100
AcDbEntity
  8
3
100
AcDbCircle
 10
74.793333
 20
194.156343
 30
0.0
 40
128.5
100
AcDbArc
 50
167.806394
 51
175.986245
  0
ARC
  5
1C8F
100
AcDbEntity
  8
3
100
AcDbCircle
 10
-44.696595
 20
194.156343
 30
0.0
 40
12.510071
100
AcDbArc
 50
134.029744
 51
225.970256
  0
ARC
  5
1C90
100
AcDbEntity
  8
3
100
AcDbCircle
 10
-50.111539
 20
223.174505
 30
0.0
 40
2.001864
100
AcDbArc
 50
186.28276
 51
249.651715
  0
ARC
  5
1C92
100
AcDbEntity
  8
3
100
AcDbCircle
 10
74.793333
 20
194.156343
 30
0.0
 40
128.5
100
AcDbArc
 50
136.013755
 51
139.986245
  0
ARC
  5
1C93
100
AcDbEntity
  8
3
100
AcDbCircle
 10
-21.87605
 20
264.390761
 30
0.0
 40
12.510071
100
AcDbArc
 50
98.029744
 51
189.970256
  0
ARC
  5
1C94
100
AcDbEntity
  8
3
100
AcDbCircle
 10
74.793333
 20
194.156343
 30
0.0
 40
128.5
100
AcDbArc
 50
148.013755
 51
156.193606
  0
ARC
  5
1C95
100
AcDbEntity
  8
3
100
AcDbCircle
 10
-5.161035
 20
282.954666
 30
0.0
 40
12.510071
100
AcDbArc
 50
86.029744
 51
177.970256
  0
LINE
  5
1C97
100
AcDbEntity
  8
3
100
AcDbLine
 10
61.793333
 20
321.997065
 30
0.0
 11
59.793333
 21
225.77912
 31
0.0
  0
ARC
  5
1C99
100
AcDbEntity
  8
3
100
AcDbCircle
 10
15.048369
 20
297.637657
 30
0.0
 40
12.510071
100
AcDbArc
 50
74.029744
 51
165.970256
  0
ARC
  5
1C9B
100
AcDbEntity
  8
3
100
AcDbCircle
 10
74.793333
 20
187.871388
 30
0.0
 40
39.694886
100
AcDbArc
 50
90.0
 51
109.806002
  0
ARC
  5
1C9C
100
AcDbEntity
  8
3
100
AcDbCircle
 10
80.770681
 20
192.214186
 30
0.0
 40
39.694886
100
AcDbArc
 50
142.193998
 51
181.806002
  0
ARC
  5
1C9D
100
AcDbEntity
  8
3
100
AcDbCircle
 10
39.677568
 20
191.022502
 30
0.0
 40
1.419184
100
AcDbArc
 50
286.600741
 51
357.604442
  0
ARC
  5
1C9E
100
AcDbEntity
  8
3
100
AcDbCircle
 10
74.793333
 20
194.156343
 30
0.0
 40
35.0
100
AcDbArc
 50
115.376934
 51
136.623066
  0
ARC
  5
1C9F
100
AcDbEntity
  8
3
100
AcDbCircle
 10
48.226108
 20
217.332203
 30
0.0
 40
1.419184
100
AcDbArc
 50
326.395558
 51
37.399259
  0
ARC
  5
1CA0
100
AcDbEntity
  8
3
100
AcDbCircle
 10
60.961505
 20
226.58501
 30
0.0
 40
1.419184
100
AcDbArc
 50
214.600741
 51
285.604442
  0
LINE
  5
1CAA
100
AcDbEntity
  8
1
100
AcDbLine
 10
74.793333
 20
332.156343
 30
0.0
 11
44.904696
 21
332.156343
 31
0.0
  0
ARC
  5
1CAB
100
AcDbEntity
  8
3
100
AcDbCircle
 10
37.868915
 20
307.798019
 30
0.0
 40
12.510071
100
AcDbArc
 50
62.029744
 51
153.970256
  0
ARC
  5
1CAC
100
AcDbEntity
  8
3
100
AcDbCircle
 10
74.793333
 20
194.156343
 30
0.0
 40
128.5
100
AcDbArc
 50
112.013755
 51
115.986245
  0
ARC
  5
1CAF
100
AcDbEntity
  8
3
100
AcDbCircle
 10
74.793333
 20
194.156343
 30
0.0
 40
128.5
100
AcDbArc
 50
95.806394
 51
103.986245
  0
LINE
  5
1CB8
100
AcDbEntity
  8
3
100
AcDbLine
 10
410.239464
 20
194.156343
 30
0.0
 11
410.239464
 21
169.656343
 31
0.0
  0
LINE
  5
1CB9
100
AcDbEntity
  8
3
100
AcDbLine
 10
364.239464
 20
165.656343
 30
0.0
 11
364.239464
 21
194.156343
 31
0.0
  0
LINE
  5
1CBA
100
AcDbEntity
  8
3
100
AcDbLine
 10
362.239464
 20
194.156343
 30
0.0
 11
362.239464
 21
50.791738
 31
0.0
  0
LINE
  5
1CBB
100
AcDbEntity
  8
1
100
AcDbLine
 10
376.723519
 20
193.940213
 30
0.0
 11
376.723519
 21
25.831452
 31
0.0
  0
LINE
  5
1CBC
100
AcDbEntity
  8
3
100
AcDbLine
 10
406.239464
 20
165.656343
 30
0.0
 11
390.239464
 21
165.656343
 31
0.0
  0
ARC
  5
1CBD
100
AcDbEntity
  8
3
100
AcDbCircle
 10
376.748162
 20
55.293909
 30
0.0
 40
10.5
100
AcDbArc
 50
2.985332
 51
177.014668
  0
LINE
  5
1CBE
100
AcDbEntity
  8
3
100
AcDbLine
 10
391.239464
 20
50.791738
 30
0.0
 11
391.239464
 21
122.601492
 31
0.0
  0
LINE
  5
1CBF
100
AcDbEntity
  8
1
100
AcDbLine
 10
355.137877
 20
51.156343
 30
0.0
 11
394.765441
 21
51.156343
 31
0.0
  0
ARC
  5
1CC0
100
AcDbEntity
  8
3
100
AcDbCircle
 10
376.739464
 20
51.300666
 30
0.0
 40
14.508929
100
AcDbArc
 50
182.010172
 51
357.989828
  0
ARC
  5
1CC1
100
AcDbEntity
  8
3
100
AcDbCircle
 10
360.294641
 20
56.461808
 30
0.0
 40
6.0
100
AcDbArc
 50
289.089008
 51
357.821003
  0
ARC
  5
1CC2
100
AcDbEntity
  8
3
100
AcDbCircle
 10
393.201684
 20
56.461808
 30
0.0
 40
6.0
100
AcDbArc
 50
182.178997
 51
250.910992
  0
LINE
  5
1CC8
100
AcDbEntity
  8
3
100
AcDbLine
 10
383.397534
 20
91.488245
 30
0.0
 11
385.013798
 21
160.62714
 31
0.0
  0
LINE
  5
1CC9
100
AcDbEntity
  8
3
100
AcDbLine
 10
370.36177
 20
160.562257
 30
0.0
 11
370.36177
 21
90.856132
 31
0.0
  0
ARC
  5
1CCA
100
AcDbEntity
  8
3
100
AcDbCircle
 10
380.729771
 20
91.417869
 30
0.0
 40
10.383208
100
AcDbArc
 50
183.101243
 51
215.094776
  0
ARC
  5
1CCB
100
AcDbEntity
  8
3
100
AcDbCircle
 10
374.839021
 20
90.599346
 30
0.0
 40
8.604551
100
AcDbArc
 50
321.823769
 51
5.929557
  0
ARC
  5
1CCC
100
AcDbEntity
  8
3
100
AcDbCircle
 10
376.984255
 20
89.038096
 30
0.0
 40
5.953989
100
AcDbArc
 50
217.080193
 51
320.874774
  0
LINE
  5
1CCD
100
AcDbEntity
  8
3
100
AcDbLine
 10
391.239464
 20
122.601492
 30
0.0
 11
391.239464
 21
165.156343
 31
0.0
  0
ARC
  5
1CCE
100
AcDbEntity
  8
2
100
AcDbCircle
 10
377.68938
 20
166.672247
 30
0.0
 40
6.916232
100
AcDbArc
 50
216.714627
 51
324.994757
  0
ARC
  5
1CCF
100
AcDbEntity
  8
2
100
AcDbCircle
 10
377.415209
 20
170.206272
 30
0.0
 40
7.190829
100
AcDbArc
 50
40.874046
 51
139.125954
  0
ARC
  5
1CD0
100
AcDbEntity
  8
3
100
AcDbCircle
 10
377.608581
 20
178.480472
 30
0.0
 40
19.328184
100
AcDbArc
 50
229.194323
 51
310.805677
  0
LINE
  5
1CD1
100
AcDbEntity
  8
2
100
AcDbLine
 10
370.36177
 20
160.562257
 30
0.0
 11
370.36177
 21
169.726507
 31
0.0
  0
ARC
  5
1CD2
100
AcDbEntity
  8
2
100
AcDbCircle
 10
382.060317
 20
168.859914
 30
0.0
 40
11.759374
100
AcDbArc
 50
149.025582
 51
212.523629
  0
LINE
  5
1CD3
100
AcDbEntity
  8
3
100
AcDbLine
 10
364.239464
 20
165.656343
 30
0.0
 11
364.977698
 21
163.850384
 31
0.0
  0
LINE
  5
1CD4
100
AcDbEntity
  8
2
100
AcDbLine
 10
385.013798
 20
160.62714
 30
0.0
 11
385.188022
 21
168.079944
 31
0.0
  0
ARC
  5
1CD5
100
AcDbEntity
  8
2
100
AcDbCircle
 10
375.246316
 20
168.485285
 30
0.0
 40
9.957747
100
AcDbArc
 50
324.513776
 51
40.195095
  0
LINE
  5
1CD6
100
AcDbEntity
  8
3
100
AcDbLine
 10
390.239464
 20
163.850384
 30
0.0
 11
390.239464
 21
165.656343
 31
0.0
  0
ARC
  5
1CD7
100
AcDbEntity
  8
3
100
AcDbCircle
 10
406.239464
 20
169.656343
 30
0.0
 40
4.0
100
AcDbArc
 50
270.0
 51
0.0
  0
LINE
  5
1CD8
100
AcDbEntity
  8
3
100
AcDbLine
 10
406.239464
 20
222.656343
 30
0.0
 11
390.239464
 21
222.656343
 31
0.0
  0
LINE
  5
1CDA
100
AcDbEntity
  8
1
100
AcDbLine
 10
414.610466
 20
194.156343
 30
0.0
 11
354.004714
 21
194.156343
 31
0.0
  0
LINE
  5
1CDB
100
AcDbEntity
  8
3
100
AcDbLine
 10
383.309046
 20
320.572125
 30
0.0
 11
385.223519
 21
226.981029
 31
0.0
  0
LINE
  5
1CDC
100
AcDbEntity
  8
3
100
AcDbLine
 10
370.223519
 20
317.600077
 30
0.0
 11
370.223519
 21
228.118044
 31
0.0
  0
LINE
  5
1CDD
100
AcDbEntity
  8
3
100
AcDbLine
 10
391.239464
 20
337.520949
 30
0.0
 11
391.239464
 21
287.93936
 31
0.0
  0
LINE
  5
1CDE
100
AcDbEntity
  8
3
100
AcDbLine
 10
362.239464
 20
194.156343
 30
0.0
 11
362.239464
 21
337.520949
 31
0.0
  0
LINE
  5
1CDF
100
AcDbEntity
  8
1
100
AcDbLine
 10
376.739464
 20
355.020949
 30
0.0
 11
376.739464
 21
192.020949
 31
0.0
  0
LINE
  5
1CE7
100
AcDbEntity
  8
3
100
AcDbLine
 10
391.239464
 20
287.93936
 30
0.0
 11
391.239464
 21
222.656343
 31
0.0
  0
ARC
  5
1CE8
100
AcDbEntity
  8
2
100
AcDbCircle
 10
386.578248
 20
206.015467
 30
0.0
 40
16.824351
100
AcDbArc
 50
145.493586
 51
213.318413
  0
ARC
  5
1CE9
100
AcDbEntity
  8
2
100
AcDbCircle
 10
366.194018
 20
205.769182
 30
0.0
 40
18.489563
100
AcDbArc
 50
330.889156
 51
32.637345
  0
LINE
  5
1CEA
100
AcDbEntity
  8
3
100
AcDbLine
 10
364.239464
 20
222.656343
 30
0.0
 11
364.239464
 21
194.156343
 31
0.0
  0
ARC
  5
1CEB
100
AcDbEntity
  8
2
100
AcDbCircle
 10
377.433641
 20
200.071067
 30
0.0
 40
5.91789
100
AcDbArc
 50
213.857981
 51
326.142019
  0
ARC
  5
1CEC
100
AcDbEntity
  8
3
100
AcDbCircle
 10
377.608581
 20
209.832215
 30
0.0
 40
19.328184
100
AcDbArc
 50
49.194323
 51
130.805677
  0
ARC
  5
1CED
100
AcDbEntity
  8
2
100
AcDbCircle
 10
377.297927
 20
212.902804
 30
0.0
 40
5.291678
100
AcDbArc
 50
32.435167
 51
150.027583
  0
LINE
  5
1CEE
100
AcDbEntity
  8
3
100
AcDbLine
 10
364.239464
 20
222.656343
 30
0.0
 11
364.977698
 21
224.462303
 31
0.0
  0
LINE
  5
1CEF
100
AcDbEntity
  8
3
100
AcDbLine
 10
390.239464
 20
224.462303
 30
0.0
 11
390.239464
 21
222.656343
 31
0.0
  0
ARC
  5
1CF0
100
AcDbEntity
  8
3
100
AcDbCircle
 10
376.739464
 20
337.012021
 30
0.0
 40
14.508929
100
AcDbArc
 50
2.010172
 51
177.989828
  0
LINE
  5
1CF1
100
AcDbEntity
  8
3
100
AcDbLine
 10
362.239464
 20
318.156343
 30
0.0
 11
370.223519
 21
317.600077
 31
0.0
  0
LINE
  5
1CF2
100
AcDbEntity
  8
3
100
AcDbLine
 10
387.206022
 20
332.079008
 30
0.0
 11
387.206022
 21
321.779514
 31
0.0
  0
LINE
  5
1CF3
100
AcDbEntity
  8
3
100
AcDbLine
 10
387.206022
 20
321.779514
 30
0.0
 11
383.309046
 21
320.572125
 31
0.0
  0
ARC
  5
1CF4
100
AcDbEntity
  8
3
100
AcDbCircle
 10
393.201684
 20
331.850879
 30
0.0
 40
6.0
100
AcDbArc
 50
109.089008
 51
177.821003
  0
LINE
  5
1CF5
100
AcDbEntity
  8
3
100
AcDbLine
 10
410.239464
 20
194.156343
 30
0.0
 11
410.239464
 21
218.656343
 31
0.0
  0
ARC
  5
1CF6
100
AcDbEntity
  8
3
100
AcDbCircle
 10
406.239464
 20
218.656343
 30
0.0
 40
4.0
100
AcDbArc
 50
0.0
 51
90.0
  0
LINE
  5
1CF7
100
AcDbEntity
  8
1
100
AcDbLine
 10
74.793333
 20
194.156343
 30
0.0
 11
-91.206667
 21
194.156343
 31
0.0
  0
ARC
  5
1CF8
100
AcDbEntity
  8
3
100
AcDbCircle
 10
74.793333
 20
194.156343
 30
0.0
 40
157.5
100
AcDbArc
 50
270.0
 51
90.0
  0
ARC
  5
1CF9
100
AcDbEntity
  8
3
100
AcDbCircle
 10
74.793333
 20
194.156343
 30
0.0
 40
143.0
100
AcDbArc
 50
270.0
 51
81.551164
  0
LINE
  5
1CFA
100
AcDbEntity
  8
3
100
AcDbLine
 10
139.419003
 20
83.089819
 30
0.0
 11
81.24548
 21
159.756201
 31
0.0
  0
ARC
  5
1CFB
100
AcDbEntity
  8
3
100
AcDbCircle
 10
183.952815
 20
145.555411
 30
0.0
 40
12.510071
100
AcDbArc
 50
290.029744
 51
21.970256
  0
LINE
  5
1CFC
100
AcDbEntity
  8
3
100
AcDbLine
 10
160.453445
 20
98.372236
 30
0.0
 11
105.51599
 21
177.389759
 31
0.0
  0
LINE
  5
1CFD
100
AcDbEntity
  8
1
100
AcDbLine
 10
74.793333
 20
194.156343
 30
0.0
 11
175.548639
 21
55.478562
 31
0.0
  0
ARC
  5
1CFE
100
AcDbEntity
  8
3
100
AcDbCircle
 10
74.793333
 20
194.156343
 30
0.0
 40
128.5
100
AcDbArc
 50
292.013755
 51
300.193606
  0
ARC
  5
1CFF
100
AcDbEntity
  8
3
100
AcDbCircle
 10
111.486009
 20
143.653207
 30
0.0
 40
68.190914
100
AcDbArc
 50
296.015497
 51
315.984503
  0
ARC
  5
1D00
100
AcDbEntity
  8
3
100
AcDbCircle
 10
140.988972
 20
84.331856
 30
0.0
 40
2.001864
100
AcDbArc
 50
218.348285
 51
281.71724
  0
ARC
  5
1D01
100
AcDbEntity
  8
3
100
AcDbCircle
 10
74.793333
 20
194.156343
 30
0.0
 40
128.5
100
AcDbArc
 50
311.806394
 51
319.986245
  0
ARC
  5
1D02
100
AcDbEntity
  8
3
100
AcDbCircle
 10
171.462716
 20
123.921926
 30
0.0
 40
12.510071
100
AcDbArc
 50
278.029744
 51
9.970256
  0
ARC
  5
1D03
100
AcDbEntity
  8
3
100
AcDbCircle
 10
74.793333
 20
194.156343
 30
0.0
 40
128.5
100
AcDbArc
 50
328.013755
 51
331.986245
  0
ARC
  5
1D04
100
AcDbEntity
  8
3
100
AcDbCircle
 10
158.78705
 20
97.262916
 30
0.0
 40
2.001864
100
AcDbArc
 50
330.28276
 51
33.651715
  0
ARC
  5
1D05
100
AcDbEntity
  8
3
100
AcDbCircle
 10
74.793333
 20
194.156343
 30
0.0
 40
128.5
100
AcDbArc
 50
280.013755
 51
283.986245
  0
ARC
  5
1D06
100
AcDbEntity
  8
3
100
AcDbCircle
 10
111.717752
 20
80.514668
 30
0.0
 40
12.510071
100
AcDbArc
 50
242.029744
 51
333.970256
  0
ARC
  5
1D07
100
AcDbEntity
  8
3
100
AcDbCircle
 10
87.283432
 20
75.320993
 30
0.0
 40
12.510071
100
AcDbArc
 50
230.029744
 51
321.970256
  0
ARC
  5
1D08
100
AcDbEntity
  8
3
100
AcDbCircle
 10
74.793333
 20
194.156343
 30
0.0
 40
128.5
100
AcDbArc
 50
270.0
 51
271.986245
  0
LINE
  5
1D09
100
AcDbEntity
  8
1
100
AcDbLine
 10
74.793333
 20
194.156343
 30
0.0
 11
240.793334
 21
194.156343
 31
0.0
  0
ARC
  5
1D0A
100
AcDbEntity
  8
3
100
AcDbCircle
 10
134.16333
 20
213.446825
 30
0.0
 40
68.190914
100
AcDbArc
 50
8.015497
 51
27.984503
  0
LINE
  5
1D0B
100
AcDbEntity
  8
1
100
AcDbLine
 10
74.793333
 20
194.156343
 30
0.0
 11
235.837149
 21
246.482651
 31
0.0
  0
LINE
  5
1D0C
100
AcDbEntity
  8
3
100
AcDbLine
 10
200.394305
 20
221.297564
 30
0.0
 11
109.503636
 21
189.662471
 31
0.0
  0
ARC
  5
1D0D
100
AcDbEntity
  8
3
100
AcDbCircle
 10
191.67212
 20
169.31299
 30
0.0
 40
12.510071
100
AcDbArc
 50
302.029744
 51
33.970256
  0
ARC
  5
1D0E
100
AcDbEntity
  8
3
100
AcDbCircle
 10
74.793333
 20
194.156343
 30
0.0
 40
128.5
100
AcDbArc
 50
352.013755
 51
355.986245
  0
ARC
  5
1D0F
100
AcDbEntity
  8
3
100
AcDbCircle
 10
74.793333
 20
194.156343
 30
0.0
 40
128.5
100
AcDbArc
 50
4.013755
 51
12.193606
  0
ARC
  5
1D10
100
AcDbEntity
  8
3
100
AcDbCircle
 10
194.283262
 20
194.156343
 30
0.0
 40
12.510071
100
AcDbArc
 50
314.029744
 51
45.970256
  0
ARC
  5
1D11
100
AcDbEntity
  8
3
100
AcDbCircle
 10
199.698205
 20
223.174505
 30
0.0
 40
2.001864
100
AcDbArc
 50
290.348285
 51
353.71724
  0
ARC
  5
1D12
100
AcDbEntity
  8
3
100
AcDbCircle
 10
111.717752
 20
307.798019
 30
0.0
 40
12.510071
100
AcDbArc
 50
26.029744
 51
117.970256
  0
LINE
  5
1D13
100
AcDbEntity
  8
3
100
AcDbLine
 10
87.793333
 20
321.997065
 30
0.0
 11
89.793333
 21
225.77912
 31
0.0
  0
ARC
  5
1D14
100
AcDbEntity
  8
3
100
AcDbCircle
 10
74.793333
 20
194.156343
 30
0.0
 40
28.374924
100
AcDbArc
 50
270.0
 51
90.0
  0
ARC
  5
1D15
100
AcDbEntity
  8
3
100
AcDbCircle
 10
74.793333
 20
187.871388
 30
0.0
 40
39.694886
100
AcDbArc
 50
70.193998
 51
90.0
  0
LINE
  5
1D16
100
AcDbEntity
  8
3
100
AcDbLine
 10
192.359863
 20
246.025034
 30
0.0
 11
100.233126
 21
218.194167
 31
0.0
  0
ARC
  5
1D17
100
AcDbEntity
  8
3
100
AcDbCircle
 10
74.793333
 20
194.156343
 30
0.0
 40
128.5
100
AcDbArc
 50
340.013755
 51
343.986245
  0
ARC
  5
1D18
100
AcDbEntity
  8
3
100
AcDbCircle
 10
74.793333
 20
194.156343
 30
0.0
 40
35.0
100
AcDbArc
 50
331.376934
 51
352.623066
  0
ARC
  5
1D19
100
AcDbEntity
  8
3
100
AcDbCircle
 10
71.099129
 20
199.240979
 30
0.0
 40
39.694886
100
AcDbArc
 50
286.193998
 51
325.806002
  0
ARC
  5
1D1A
100
AcDbEntity
  8
3
100
AcDbCircle
 10
74.793333
 20
194.156343
 30
0.0
 40
35.0
100
AcDbArc
 50
270.0
 51
280.623066
  0
ARC
  5
1D1B
100
AcDbEntity
  8
3
100
AcDbCircle
 10
82.664241
 20
159.790856
 30
0.0
 40
1.419184
100
AcDbArc
 50
110.395558
 51
181.399259
  0
ARC
  5
1D1C
100
AcDbEntity
  8
3
100
AcDbCircle
 10
105.044609
 20
176.051146
 30
0.0
 40
1.419184
100
AcDbArc
 50
70.600741
 51
141.604442
  0
ARC
  5
1D1D
100
AcDbEntity
  8
3
100
AcDbCircle
 10
68.815986
 20
192.214186
 30
0.0
 40
39.694886
100
AcDbArc
 50
358.193998
 51
37.806002
  0
ARC
  5
1D1E
100
AcDbEntity
  8
3
100
AcDbCircle
 10
109.909098
 20
191.022502
 30
0.0
 40
1.419184
100
AcDbArc
 50
182.395558
 51
253.399259
  0
ARC
  5
1D1F
100
AcDbEntity
  8
3
100
AcDbCircle
 10
74.793333
 20
194.156343
 30
0.0
 40
35.0
100
AcDbArc
 50
43.376934
 51
64.623066
  0
ARC
  5
1D20
100
AcDbEntity
  8
3
100
AcDbCircle
 10
101.360558
 20
217.332203
 30
0.0
 40
1.419184
100
AcDbArc
 50
142.600741
 51
213.604442
  0
ARC
  5
1D21
100
AcDbEntity
  8
3
100
AcDbCircle
 10
88.625161
 20
226.58501
 30
0.0
 40
1.419184
100
AcDbArc
 50
254.395558
 51
325.399259
  0
ARC
  5
1D22
100
AcDbEntity
  8
3
100
AcDbCircle
 10
134.538297
 20
297.637657
 30
0.0
 40
12.510071
100
AcDbArc
 50
14.029744
 51
105.970256
  0
ARC
  5
1D23
100
AcDbEntity
  8
3
100
AcDbCircle
 10
171.462716
 20
264.390761
 30
0.0
 40
12.510071
100
AcDbArc
 50
350.029744
 51
81.970256
  0
ARC
  5
1D24
100
AcDbEntity
  8
3
100
AcDbCircle
 10
74.793333
 20
194.156343
 30
0.0
 40
128.5
100
AcDbArc
 50
23.806394
 51
31.986245
  0
ARC
  5
1D25
100
AcDbEntity
  8
3
100
AcDbCircle
 10
192.899944
 20
244.0974
 30
0.0
 40
2.001864
100
AcDbArc
 50
42.28276
 51
105.651715
  0
ARC
  5
1D26
100
AcDbEntity
  8
3
100
AcDbCircle
 10
154.747701
 20
282.954666
 30
0.0
 40
12.510071
100
AcDbArc
 50
2.029744
 51
93.970256
  0
ARC
  5
1D27
100
AcDbEntity
  8
3
100
AcDbCircle
 10
74.793333
 20
194.156343
 30
0.0
 40
128.5
100
AcDbArc
 50
40.013755
 51
43.986245
  0
ARC
  5
1D28
100
AcDbEntity
  8
3
100
AcDbCircle
 10
74.793333
 20
194.156343
 30
0.0
 40
128.5
100
AcDbArc
 50
52.013755
 51
55.986245
  0
ARC
  5
1D29
100
AcDbEntity
  8
3
100
AcDbCircle
 10
74.793333
 20
194.156343
 30
0.0
 40
128.5
100
AcDbArc
 50
64.013755
 51
67.986245
  0
ARC
  5
1D2A
100
AcDbEntity
  8
3
100
AcDbCircle
 10
74.793333
 20
194.156343
 30
0.0
 40
128.5
100
AcDbArc
 50
76.013755
 51
84.193606
  0
LINE
  5
1D2B
100
AcDbEntity
  8
1
100
AcDbLine
 10
74.793333
 20
332.156343
 30
0.0
 11
104.68197
 21
332.156343
 31
0.0
  0
LINE
  5
1D77
100
AcDbEntity
  8
1
100
AcDbLine
 10
348.295734
 20
332.156343
 30
0.0
 11
407.720205
 21
332.156343
 31
0.0
  0
CIRCLE
  5
1DF1
100
AcDbEntity
  8
3
100
AcDbCircle
 10
74.793333
 20
332.156343
 30
0.0
 40
10.0
  0
CIRCLE
  5
1DF2
100
AcDbEntity
  8
3
100
AcDbCircle
 10
74.793333
 20
332.156343
 30
0.0
 40
6.0
  0
CIRCLE
  5
1DF3
100
AcDbEntity
  8
3
100
AcDbCircle
 10
74.793333
 20
332.156343
 30
0.0
 40
5.0
  0
ARC
  5
1DF4
100
AcDbEntity
  8
3
100
AcDbCircle
 10
74.793333
 20
332.156343
 30
0.0
 40
14.182195
100
AcDbArc
 50
180.0
 51
0.0
  0
ARC
  5
1DF5
100
AcDbEntity
  8
3
100
AcDbCircle
 10
94.376753
 20
329.94533
 30
0.0
 40
5.83625
100
AcDbArc
 50
75.847105
 51
157.73806
  0
ARC
  5
1DF6
100
AcDbEntity
  8
3
100
AcDbCircle
 10
55.209913
 20
329.94533
 30
0.0
 40
5.83625
100
AcDbArc
 50
22.26194
 51
104.152895
  0
LINE
  5
1DF9
100
AcDbEntity
  8
3
100
AcDbLine
 10
364.239464
 20
332.156343
 30
0.0
 11
364.239464
 21
342.156343
 31
0.0
  0
LINE
  5
1DFA
100
AcDbEntity
  8
3
100
AcDbLine
 10
364.239464
 20
342.156343
 30
0.0
 11
363.173147
 21
342.156343
 31
0.0
  0
LINE
  5
1DFB
100
AcDbEntity
  8
3
100
AcDbLine
 10
364.239464
 20
332.156343
 30
0.0
 11
364.239464
 21
322.156343
 31
0.0
  0
LINE
  5
1DFC
100
AcDbEntity
  8
3
100
AcDbLine
 10
364.239464
 20
322.156343
 30
0.0
 11
362.239464
 21
322.156343
 31
0.0
  0
LINE
  5
1DFD
100
AcDbEntity
  8
3
100
AcDbLine
 10
364.239464
 20
332.156343
 30
0.0
 11
364.239464
 21
338.156343
 31
0.0
  0
LINE
  5
1DFE
100
AcDbEntity
  8
3
100
AcDbLine
 10
364.239464
 20
338.156343
 30
0.0
 11
391.203196
 21
338.156343
 31
0.0
  0
LINE
  5
1E00
100
AcDbEntity
  8
3
100
AcDbLine
 10
387.206022
 20
326.156343
 30
0.0
 11
364.239464
 21
326.156343
 31
0.0
  0
LINE
  5
1E02
100
AcDbEntity
  8
3
100
AcDbLine
 10
364.239464
 20
337.156343
 30
0.0
 11
390.399533
 21
337.156343
 31
0.0
  0
LINE
  5
1E04
100
AcDbEntity
  8
3
100
AcDbLine
 10
387.206022
 20
327.156343
 30
0.0
 11
364.239464
 21
327.156343
 31
0.0
  0
ENDSEC
  0
SECTION
  2
OBJECTS
  0
DICTIONARY
  5
3D1
100
AcDbDictionary
  3
ACAD_GROUP
350
3D2
  3
ACAD_MLINESTYLE
350
3D3
  3
ACDBVARIABLEDICTIONARY
350
E1C
  0
DICTIONARY
  5
3D2
102
{ACAD_REACTORS
330
3D1
102
}
100
AcDbDictionary
  0
DICTIONARY
  5
3D3
102
{ACAD_REACTORS
330
3D1
102
}
100
AcDbDictionary
  3
STANDARD
350
3E0
  0
DICTIONARY
  5
E1C
102
{ACAD_REACTORS
330
3D1
102
}
100
AcDbDictionary
  3
SORTENTS
350
E1D
  0
MLINESTYLE
  5
3E0
102
{ACAD_REACTORS
330
3D3
102
}
100
AcDbMlineStyle
  2
STANDARD
 70
     0
  3

 62
     0
 51
90.0
 52
90.0
 71
     2
 49
0.5
 62
   256
  6
BYLAYER
 49
-0.5
 62
   256
  6
BYLAYER
  0
DICTIONARYVAR
  5
E1D
102
{ACAD_REACTORS
330
E1C
102
}
100
DictionaryVariables
280
     0
  1
96
  0
ENDSEC
  0
EOF
